2 сезон

iTunes

MVO

1

2 сезон

iTunes

iTunes

1 сезон

RePack

30

Новинка

ВАЖНО

ИГРА 18+

pack

RePack

MK11
pack

Легкие деньги

RePack

jed

RePack

fifa19

RePack

RDR2

RePack

NEED FOR SPEED™ PAYBACK

4 сезон

9 сезон

Бесстыжие 9 сезон

Все сериалы

все сериалы на PB.wtf

RePack

FAR CRY 5

Anonymous, доброй ночи, мы не успеваем собрать деньги на оплату серверов за декабрь и январь, помогите нам пожалуйста в это трудное время. В качестве благодарности мы отключим Вам всю рекламу на сайте (укажите свой ник в строку Ваше имя)!

×
  
Magnet ссылка

Сборник видеоклипов DM / Depeche Mode - The Best Of Videos. Vol.1 [2007 г., Synthpop, alternative, rock, DVDRip] pb.wtf

Сборник видеоклипов DM через торрент pb.wtf

Размер: 1.78 GB | Добавлен: 7 лет 1 мес. назад | Торрент скачан:150 раз
Скачать  

30-11-2013 18:44 Сборник видеоклипов DM Скачать торрент  

Сборник видеоклипов DM
Год выпуска: 2007
Страна: Великобритания (Mute Records Ltd)
Жанр: Synthpop, alternative, rock,
Продолжительность: 01:35:48
Перевод: Оригинал

В ролях: Дэйв Гаан, Мартин Гор, Энди Флетчер, Винс Кларк, Алан Уайлдер, Петер Гордено, Кристиан Эйнер,

Описание: DVD составлен из видеоклипов с 11 альбомов группы, выпущенных между 1981 и 2006 годами, включая "Playing The Angel" и 30 минутного документального фильма: The Best Of Depeche Mode: A Short Film.
01. Just Can't Get Enough - (Directed by Clive Richardson)
02. Everything Counts - (Directed by Clive Richardson)
03. People Are People - (Directed by Clive Richardson)
04. Master & Servant - (Directed by Clive Richardson)
05. Shake The Disease - (Directed by Peter Care)
06. Stripped - (Directed by Peter Care)
07. A Question Of Time - (Directed by Anton Corbijn)
08. Strangelove [1987 Version] - (Directed by Anton Corbijn)
09. Never Let Me Down Again - (Directed by Anton Corbijn)
10. Behind The Wheel - (Directed by Anton Corbijn)
11. Personal Jesus - (Directed by Anton Corbijn)
12. Enjoy The Silence - (Directed by Anton Corbijn)
13. I Feel You - (Directed by Anton Corbijn)
14. Walking In My Shoes - (Directed by Anton Corbijn)
15. In Your Room - (Directed by Anton Corbijn)
16. Barrel Of A Gun - (Directed by Anton Corbijn)
17. It's No Good - (Directed by Anton Corbijn)
18. Only When I Lose Myself - (Directed by Brian Griffin)
19. Dream On - (Directed by Stephane Sednaoui)
20. I Feel Loved - (Directed by John Hillcoat)
21. Enjoy The Silence 04 - (Directed by Uwe Flade)
22. Precious - (Directed by Uwe Flade)
23. Suffer Well - (Directed by Anton Corbijn)
24. The Best Of Depeche Mode: 1980-2006. A Short Film.
Качество: DVDRip
Формат: AVI
Видео кодек: XviD
Аудио кодек: AC3
Видео: Xvid 704x528, 25.00fps, ~ 1800 Кбит/с
Аудио: Dolby AC3 48000Hz stereo 192kbps

General
Complete name : E:�2 08 2013 DM VideoDepeche.Mode.The.best.of.videos.Vol.1.(24.video.iz.24).XviD.DVDRip-Kinozal.TVDepeche.Mode.The.best.of.videos.Vol.1.(01.video.iz.24).Just.Cant.Get.Enough.(Directed.by.Clive.Richardson).2007.XviD.DVDRip-Kinozal.TV.avi
Format : AVI
Format/Info : Audio Video Interleave
File size : 52.3 MiB
Duration : 3mn 38s
Overall bit rate : 2 013 Kbps
Writing application : VirtualDubMod 1.5.10.2 (build 2540/release)
Writing library : VirtualDubMod build 2540/release

Video
ID : 0
Format : MPEG-4 Visual
Format profile : Advanced Simple@L5
Format settings, BVOP : 1
Format settings, QPel : No
Format settings, GMC : No warppoints
Format settings, Matrix : Default (H.263)
Muxing mode : Packed bitstream
Codec ID : XVID
Codec ID/Hint : XviD
Duration : 3mn 38s
Bit rate : 1 810 Kbps
Width : 704 pixels
Height : 528 pixels
Display aspect ratio : 4:3
Frame rate : 25.000 fps
Color space : YUV
Chroma subsampling : 4:2:0
Bit depth : 8 bits
Scan type : Progressive
Compression mode : Lossy
Bits/(Pixel*Frame) : 0.195
Stream size : 47.1 MiB (90%)
Writing library : XviD 1.2.1 (UTC 2008-12-04)

Audio
ID : 1
Format : AC-3
Format/Info : Audio Coding 3
Mode extension : CM (complete main)
Codec ID : 2000
Duration : 3mn 38s
Bit rate mode : Constant
Bit rate : 192 Kbps
Channel(s) : 2 channels
Channel positions : Front: L R
Sampling rate : 48.0 KHz
Bit depth : 16 bits
Compression mode : Lossy
Stream size : 4.99 MiB (10%)
Alignment : Aligned on interleaves
Interleave, duration : 40 ms (1.00 video frame)
Interleave, preload duration : 512 ms

pb.wtf



Скачать Сборник видеоклипов DM через торрент https://pic.kartinco.top/images/6/eu27a.jpg Скачать фильм Сборник видеоклипов DM через торрент бесплантно в хорошем качестве Описание: DVD составлен из видеоклипов с 11 альбомов группы, выпущенных между 1981 и 2006 годами, включая "Playing The Angel" и 30 ... 9.9 10 18
Info! Золотая раздача, скачанное не засчитывается.
Торрент: Зарегистрирован [2013-11-30 18:44] · скачан: 150 раз
Статус: √ проверено
Размер: 1.78 GB
Как cкачать? Как скачать Сборник видеоклипов DM через торрент | UTorrent



Последний раз редактировалось: lug30 (2013-11-30 18:52), всего редактировалось 1 раз

28-11-2019 20:33  

Отключить всю рекламу на сайте

30-11-2013 18:48 Сборник видеоклипов DM Скачать торрент  

Треклист уберите под спойлер.pb.wtf



03-12-2013 01:39 Сборник видеоклипов DM Скачать торрент  

Super!!!!!!! Все весной на концерт в СПБ или Москвуpb.wtf



    Дорогой пользователь! Огромная просьба, поблагодарите релизера, оцените раздачу и оставьте свои комментарий, если Вы скачали Сборник видеоклипов DM через торрент бесплатно! Внесите свою лепту в развитие PiratBit!
    Комментировать посты могут только пользователи прошедшие не сложную регистрацию
    Показать сообщения:    

    Сборник видеоклипов DM через торрент
    Скачать бесплатно Сборник видеоклипов DM
    Сборник видеоклипов DM скачать торрент
    Сборник видеоклипов DM смотреть онлайн
    Cкачать фильм Сборник видеоклипов DM бесплатно
    Сборник видеоклипов DM скачать торрент в хорошем качестве
    Сборник видеоклипов DM смотреть онлайн бесплатно в хорошем качестве


    Вы не можете начинать темы
    Вы не можете отвечать на сообщения
    Вы не можете редактировать свои сообщения
    Вы не можете удалять свои сообщения
    Вы не можете голосовать в опросах
    Вы не можете прикреплять файлы к сообщениям
    Вы можете скачивать файлы