Присоединяйтесь к нам в Telegram!, здесь всегда актуальный адрес сайта, оперативная поддержка и многое другое!!

>

5.9

iTunes

7.4

iTunes

9.4

1 сезон

1

7.4

2 сезон

7.2

iTunes

7.3

1 сезон

13

6.1

iTunes

8.3

GOG

30

ULTIMATE

pack

9.9

Лицензия

ВАЖНО

ИГРА 18+

pack

7.3

RePack

MK11

7.7

RePack

jed

7.8

RePack

fifa19

8.5

RePack

RDR2

RePack

NEED FOR SPEED™ PAYBACK

5 сезон

9 сезон

Бесстыжие 9 сезон

Все сериалы

все сериалы на PB.wtf

RePack

FAR CRY 5

Anonymous, добрый день, мы катастрофически не успеваем собрать деньги на оплату серверов, помогите нам пожалуйста 5,10,15р., для нас важна любая помощь . В качестве благодарности мы отключим Вам всю рекламу на сайте (укажите свой ник в строку Ваше имя)!

×
  
Magnet ссылка

Сборник клипов A-HA / A-ha. VideoCollection 1984-2010 Vol.1,Vol.2 [2011 г., Новая волна, синти-поп, поп-рок, видеоклипы, DVDRip] pb.wtf

Сборник клипов A-HA через торрент pb.wtf

Размер: 2.73 GB | Добавлен: 8 лет назад | Торрент скачан:179 раз
Смотреть онлайн Сборник клипов A-HA | Скачать    Ребята, помогите собрать деньги на оплату серверов!!!

30-11-2013 19:43 Сборник клипов A-HA Скачать торрент  

Сборник клипов A-HA
Год выпуска: 2011
Страна: Норвегия (Garra Records, London Films)
Жанр: Новая волна, синти-поп, поп-рок
Перевод: Оригинал

В ролях: Пол Воктор-Савой (Paul Waaktaar-Savoy) (род. 6 сентября 1961) — композитор, гитарист, вокалист, автор текстов.
Магне Фурухольмен (Magne Furuholmen) (род. 1 ноября 1962) — клавишник, автор текстов, композитор, вокалист, гитарист.
Мортен Харкет (Morten Harket) (род. 14 сентября 1959) — вокалист, композитор, автор текстов.,

Описание: A-ha — норвежская музыкальная группа, созданная в 1983 году в городе Осло. a-ha — один из ведущих коллективов стиля электро-поп, появившегося на излете «новой волны». Музыке a-ha присущи графичный, несколько холодноватый («скандинавский») стиль, синтезаторно-гитарное звучание, выразительная балладная мелодика вкупе с ненавязчивой танцевальностью, романтичное, иногда исполненное лёгкой грусти, настроение.
Трэклист vol.1
01.Take On Me (Original Version) (1984)
02.Take On Me (1985)
03.The Sun Always Shines On TV (1985)
04.Train Of Thought (1986)
05. Hunting High and Low (1986)
06. I`ve Been Loosing You (Original Version) (1986)
07.Cry Wolf (1986)
08.Manhattan Skyline (1987)
09.The Living Daylights (soundtrack of James Bond) (1987)
10.Stay On These Roads (1988)
11.The Blood That Moves The Body (1988)
12.Touchy! (1988)
13.You Are The One (Remix) (1988)
14.Crying In The Rain (1990)
15. I Call Your Name (1990)
16.Early Morning (1991)
17.Sycamore Leaves (1991)
18.Theres Never A Forever Thing (1991)
19.I`ve Been Losing You (Live Version) (1991)

Трэклист vol.2
01.Move To Memphis (1991)
02. Dark Is The Night For All (1993)
03.Angel (1993)
04.Shapes That Go Together (1994)
05.Summer Moved On (2000)
06.Minor Earth, Major Sky (2000)
07.I Wish I Cared (2000)
08.Velvet (2000)
09. Forever Not Yours (2002)
10.Lifelines (2002)
11. Did Anyone Approach You (2002)
12.Analogue (All I Want) (2005)
13.Celice (2005)
14.Cosy Prisons (2006)
15.Foot Of The Mountain (2009)
16.Shadowside (2009)
17. Nothing Is Keeping You Here (2009)
18.Butterfly, Butterfly (The Last Hurrah) (2010)
Качество: DVDRip
Формат: AVI
Видео кодек: XviD
Аудио кодек: AC3
Видео: Xvid 720x544, 25.00fps,2 273 Кбит/сек
Аудио: Dolby AC3, 48000Hz stereo 224kbps
Релиз от: ilu

General
Complete name : E:19 06 2013 землянеA-ha Vol.1A-ha Vol.1 _ilu_.avi
Format : AVI
Format/Info : Audio Video Interleave
File size : 1.37 GiB
Duration : 1h 18mn
Overall bit rate : 2 504 Kbps
Writing application : VirtualDubMod 1.5.4.1 (build 2178/release)
Writing library : VirtualDubMod build 2178/release

Video
ID : 0
Format : MPEG-4 Visual
Format profile : Advanced Simple@L5
Format settings, BVOP : 1
Format settings, QPel : No
Format settings, GMC : No warppoints
Format settings, Matrix : Custom
Codec ID : XVID
Codec ID/Hint : XviD
Duration : 1h 18mn
Bit rate : 2 273 Kbps
Width : 720 pixels
Height : 544 pixels
Display aspect ratio : 4:3
Frame rate : 25.000 fps
Color space : YUV
Chroma subsampling : 4:2:0
Bit depth : 8 bits
Scan type : Progressive
Compression mode : Lossy
Bits/(Pixel*Frame) : 0.232
Stream size : 1.24 GiB (91%)
Writing library : XviD 1.2.1 (UTC 2008-12-04)

Audio
ID : 1
Format : AC-3
Format/Info : Audio Coding 3
Mode extension : CM (complete main)
Codec ID : 2000
Duration : 1h 18mn
Bit rate mode : Constant
Bit rate : 224 Kbps
Channel(s) : 2 channels
Channel positions : Front: L R
Sampling rate : 48.0 KHz
Bit depth : 16 bits
Compression mode : Lossy
Stream size : 125 MiB (9%)
Alignment : Split accross interleaves
Interleave, duration : 96 ms (2.40 video frames)
Interleave, preload duration : 96 ms

pb.wtf



Скачать Сборник клипов A-HA через торрент https://pic1.kartinco.top/images/61/9wz9p.jpg Скачать, смотреть онлайн Сборник клипов A-HA бесплантно в хорошем качестве Описание: A-ha — норвежская музыкальная группа, созданная в 1983 году в городе Осло. a-ha — один из ведущих коллективов стиля электро-поп, ... 10 10 10
Info! Золотая раздача, скачанное не засчитывается.
Торрент: Зарегистрирован [2013-11-30 19:43] · скачан: 179 раз
Статус: √ проверено
Размер: 2.73 GB
Как cкачать? Как скачать Сборник клипов A-HA через торрент | UTorrent

28-11-2019 20:33  

Отключить всю рекламу на сайте

    Дорогой пользователь! Огромная просьба, поблагодарите релизера, оцените раздачу и оставьте свои комментарий, если Вы скачали Сборник клипов A-HA через торрент бесплатно!
    Комментировать посты могут только пользователи прошедшие не сложную регистрацию
    Показать сообщения:    

    Сборник клипов A-HA через торрент
    Скачать бесплатно Сборник клипов A-HA
    Сборник клипов A-HA скачать торрент
    Сборник клипов A-HA смотреть онлайн
    Cкачать фильм Сборник клипов A-HA бесплатно
    Сборник клипов A-HA скачать торрент в хорошем качестве
    Сборник клипов A-HA смотреть онлайн бесплатно в хорошем качестве


    Вы не можете начинать темы
    Вы не можете отвечать на сообщения
    Вы не можете редактировать свои сообщения
    Вы не можете удалять свои сообщения
    Вы не можете голосовать в опросах
    Вы не можете прикреплять файлы к сообщениям
    Вы можете скачивать файлы