2 сезон

iTunes

MVO

1

2 сезон

iTunes

iTunes

1 сезон

RePack

30

Новинка

ВАЖНО

ИГРА 18+

pack

RePack

MK11
pack

Легкие деньги

RePack

jed

RePack

fifa19

RePack

RDR2

RePack

NEED FOR SPEED™ PAYBACK

4 сезон

9 сезон

Бесстыжие 9 сезон

Все сериалы

все сериалы на PB.wtf

RePack

FAR CRY 5

Anonymous, доброй ночи, мы не успеваем собрать деньги на оплату серверов за декабрь и январь, помогите нам пожалуйста в это трудное время. В качестве благодарности мы отключим Вам всю рекламу на сайте (укажите свой ник в строку Ваше имя)!

×
  
Magnet ссылка

Апокалипсис / End of the World (Стивен Р. Монро / Steven R. Monroe) [ 2013 , Канада , фантастика, боевик, приключения , HDRip ] MVO pb.wtf

Апокалипсис через торрент pb.wtf

Размер: 1.37 GB | Добавлен: 7 лет 1 мес. назад | Торрент скачан:1163 раза
Скачать  

01-12-2013 18:58 Апокалипсис Скачать торрент  

Апокалипсис / End of the WorldГод выпуска: 2013
Страна: Канада
Жанр: фантастика, боевик, приключения
Продолжительность: 01:29:42
Перевод: Профессиональный (многоголосый, закадровый)
Субтитры: Нет
Режиссер: Стивен Р. Монро / Steven R. Monroe
В ролях: Грэм Беддос (Louis), Кэролайн Кейв (Selena), Саймон Чин (Orderly), Брэд Дуриф (Dr. Walter Brown), Меррилин Гэнн (Betty), Нил Грэйстон (Steve Palmer), Грег Гранберг (Owen Stokes), Марк Хилдрет (Max), Серж Уд (General Ramis), Амитай Мэрморштейн (Leonard), Джеймс Ральф (Traffic cop)
Описание:
Любовь двух работников видеопроката к фильмам-катастрофам оказывается весьма кстати, когда приближается конец света.
Рейтинг
kinopoisk.ru: 4.538 (33)
imdb.com: 4.70 (335)
MPAA: PG-13 - Детям до 13 лет просмотр не желателен
Качество: HDRip
Формат: AVI
Видео кодек: XviD
Аудио кодек: AC3
Видео: XviD, 720x400 (16:9), 1979 kbps, 23,976 fps, 0,287 bpp
Аудио: AC3 / 2.0 / 48 kHz / 192 kbps / 16 bit

General
Complete name : D:ТорентыApokalipsis.2013.P.HDRip.1400Mb.avi
Format : AVI
Format/Info : Audio Video Interleave
File size : 1.37 GiB
Duration : 1h 29mn
Overall bit rate : 2 181 Kbps
Writing application : VirtualDubMod 1.5.10.2 (build 2540/release)
Writing library : VirtualDubMod build 2540/release

Video
ID : 0
Format : MPEG-4 Visual
Format profile : Advanced Simple@L5
Format settings, BVOP : 2
Format settings, QPel : No
Format settings, GMC : No warppoints
Format settings, Matrix : Default (MPEG)
Codec ID : XVID
Codec ID/Hint : XviD
Duration : 1h 29mn
Bit rate : 1 980 Kbps
Width : 720 pixels
Height : 400 pixels
Display aspect ratio : 16:9
Frame rate : 23.976 fps
Color space : YUV
Chroma subsampling : 4:2:0
Bit depth : 8 bits
Scan type : Progressive
Compression mode : Lossy
Bits/(Pixel*Frame) : 0.287
Stream size : 1.24 GiB (91%)
Writing library : XviD 1.2.1 (UTC 2008-12-04)

Audio
ID : 1
Format : AC-3
Format/Info : Audio Coding 3
Mode extension : CM (complete main)
Codec ID : 2000
Duration : 1h 29mn
Bit rate mode : Constant
Bit rate : 192 Kbps
Channel(s) : 2 channels
Channel positions : Front: L R
Sampling rate : 48.0 KHz
Bit depth : 16 bits
Compression mode : Lossy
Stream size : 123 MiB (9%)
Alignment : Split accross interleaves
Interleave, duration : 42 ms (1.00 video frame)
Interleave, preload duration : 500 ms
pb.wtf



Скачать Апокалипсис через торрент http://i5.imageban.ru/out/2013/12/01/2c3a89ed25b926d6ac3135c9ce54f660.jpg Скачать фильм Апокалипсис через торрент бесплантно в хорошем качестве Описание: Любовь двух работников видеопроката к фильмам-катастрофам оказывается весьма кстати, когда приближается конец ... 9.1 10 36
Info! Золотая раздача, скачанное не засчитывается.
Торрент: Зарегистрирован [2013-12-01 18:58] · скачан: 1 163 раз
Статус: √ проверено
Размер: 1.37 GB
Как cкачать? Как скачать Апокалипсис через торрент | UTorrent

28-11-2019 20:33  

Отключить всю рекламу на сайте

01-12-2013 19:55 Апокалипсис Скачать торрент  

Вот это шлак типо асалума)))pb.wtf



02-12-2013 14:34 Апокалипсис Скачать торрент  

рейтинг аж зашкаливаетpb.wtf



03-12-2013 19:29 Апокалипсис Скачать торрент  

тв3 под такие фильмы кимарить хорошо!!!pb.wtf



04-12-2013 09:51 Апокалипсис Скачать торрент  

фильм норм никто не знает?pb.wtf



06-12-2013 03:05 Апокалипсис Скачать торрент  

на обложке лого мегафона епта ))pb.wtf



    Дорогой пользователь! Огромная просьба, поблагодарите релизера, оцените раздачу и оставьте свои комментарий, если Вы скачали Апокалипсис через торрент бесплатно! Внесите свою лепту в развитие PiratBit!
    Комментировать посты могут только пользователи прошедшие не сложную регистрацию
    Показать сообщения:    

    Апокалипсис через торрент
    Скачать бесплатно Апокалипсис
    Апокалипсис скачать торрент
    Апокалипсис смотреть онлайн
    Cкачать фильм Апокалипсис бесплатно
    Апокалипсис скачать торрент в хорошем качестве
    Апокалипсис смотреть онлайн бесплатно в хорошем качестве


    Вы не можете начинать темы
    Вы не можете отвечать на сообщения
    Вы не можете редактировать свои сообщения
    Вы не можете удалять свои сообщения
    Вы не можете голосовать в опросах
    Вы не можете прикреплять файлы к сообщениям
    Вы можете скачивать файлы