2 сезон

iTunes

1 сезон

1

iTunes

iTunes

iTunes

1 сезон

RePack

30

ИГРА 18+

pack

ВАЖНО

!!Акция!!

Alien_RageХит недели

RePack

MK11
pack

Забери бонус

RePack

jed

!!Акция!!

Alien_Rage

RePack

fifa19

RePack

Assassins Creed: Odyssey

RePack

NEED FOR SPEED™ PAYBACK

4 сезон

9 сезон

Бесстыжие 9 сезон

Все сериалы

все сериалы на PB.wtf

RePack

FAR CRY 5
  

Робин Гуд / Robin Hood (Ридли Скотт / Ridley Scott) [2010, США / Великобритания, Боевик, драма, приключения, BDRip] [Полная режиссерская версия / Unrated Director`s Cut] Dub pb.wtf

Робин Гуд через торрент pb.wtf

Качают: 1 [ 0 KB/s ]
Размер: 2.17 GB | Добавлен: 6 лет 10 мес. назад | Торрент скачан:644 раза
Скачать  

02-12-2013 12:33 Робин Гуд Скачать торрент  

Робин Гуд / Robin HoodГод выпуска: 2010
Страна: США, Великобритания
Жанр: боевик, драма, приключения

Продолжительность: 02:35:48
Перевод: Профессиональный (полное дублирование)(В местах нормандской речи, озвучено zamez)
Субтитры: Нет
Режиссер: Ридли Скотт / Ridley Scott
В ролях: Рассел Кроу (Robin Longstride), Кейт Бланшетт (Marion Loxley), Макс фон Сюдов (Sir Walter Loxley), Уильям Хёрт (William Marshal), Марк Стронг (Godfrey), Оскар Айзек (Prince John), Кевин Дюран (Little John), Айлин Эткинс (Eleanor of Aquitaine), Марк Эдди (Friar Tuck), Мэттью Макфейден (Sheriff of Nottingham), Дэнни Хьюстон (King Richard the Lionheart), Скотт Граймз (Will Scarlet)
Описание:
История лучника армии Ричарда Львиное Сердце, который борется против нормандских захватчиков и становится легендарным героем, известным под именем Робин Гуд.
Рейтинг
kinopoisk.ru: 7.365 (51 105)
imdb.com: 6.70 (155 825)
MPAA: PG-13 - Детям до 13 лет просмотр не желателен
Качество: BDRip
Формат: AVI
Видео кодек: XviD
Аудио кодек: AC3
Видео: XviD, 720x304 (2.35:1), 1537 kbps, 23,976 fps, 0,293 bpp
Аудио: AC3 / 5.1 / 48 kHz / 448 kbps / 16 bit
General
Complete name : D:ТорентыRobin.Gud.2010.(Unrated).BDRip.Reliz.by.Sebastian_77.avi
Format : AVI
Format/Info : Audio Video Interleave
Format profile : OpenDML
File size : 2.17 GiB
Duration : 2h 35mn
Overall bit rate : 1 998 Kbps
Movie name : Robin.Gud.2010.(Unrated).BDRip.Reliz.by.Sebastian_77
Writing application : VirtualDubMod 1.5.10.2 (build 2540/release)
Copyright : Reliz.by.Sebastian_77

Video
ID : 0
Format : MPEG-4 Visual
Format profile : Advanced Simple@L5
Format settings, BVOP : 1
Format settings, QPel : No
Format settings, GMC : No warppoints
Format settings, Matrix : Custom
Codec ID : XVID
Codec ID/Hint : XviD
Duration : 2h 35mn
Bit rate : 1 538 Kbps
Width : 720 pixels
Height : 304 pixels
Display aspect ratio : 2.35:1
Frame rate : 23.976 fps
Color space : YUV
Chroma subsampling : 4:2:0
Bit depth : 8 bits
Scan type : Progressive
Compression mode : Lossy
Bits/(Pixel*Frame) : 0.293
Stream size : 1.67 GiB (77%)
Writing library : XviD 1.2.1 (UTC 2008-12-04)

Audio
ID : 1
Format : AC-3
Format/Info : Audio Coding 3
Mode extension : CM (complete main)
Codec ID : 2000
Duration : 2h 35mn
Bit rate mode : Constant
Bit rate : 448 Kbps
Channel(s) : 6 channels
Channel positions : Front: L C R, Side: L R, LFE
Sampling rate : 48.0 KHz
Bit depth : 16 bits
Compression mode : Lossy
Delay relative to video : 12ms
Stream size : 499 MiB (22%)
Alignment : Split accross interleaves
Interleave, duration : 42 ms (1.00 video frame)
Interleave, preload duration : 500 ms
скриншот   скриншот   скриншот  pb.wtf



Скачать Робин Гуд через торрент http://i4.imageban.ru/out/2013/12/02/5da9d0dd44778f9a65e9c181df0484e9.jpg Скачать фильм Робин Гуд через торрент бесплантно в хорошем качестве Описание: История лучника армии Ричарда Львиное Сердце, который борется против нормандских захватчиков и становится легендарным героем, ... 10 10 24
Info! Золотая раздача, скачанное не засчитывается.
Торрент: Зарегистрирован [2013-12-02 12:33] · скачан: 644 раз
Статус: √ проверено
Размер: 2.17 GB
Как cкачать? Как скачать Робин Гуд через торрент | qTorrent

% Раздел Тема Автор DL S | L
Фильмы 2018 [DVDrip, WEB-DLRip, HDrip] (DUB, MVO) [ 1.46 GB ] Робин Гуд: Начало / Robin Hood [2018 WEB-DLRip] [Локализованный видеоряд] killermax2013 Скачать
6 | 0
Фильмы (HD 720p, 1080p) (48-60 fps) [ 26.48 GB ] Робин Гуд: Начало / Robin Hood [2018 BDRip 1080p 60 fps] sheker187 Скачать
1 | 0
T Фильмы с украинским озвучиванием [ 3.58 GB ] Робин Гуд: Начало / Robin Hood [2018 WEBRip 1080p] [Ukr DUB] killermax2013 Скачать
1 | 0
Ultra HD (UHD: 2K, 4K, 8K) — видео сверхвысокой чёткости [ 85.87 GB ] Робин Гуд: Начало / Robin Hood [2018 UHD Blu-ray 2160p] [Dolby Vision] sheker187 Скачать
1 | 0
Фильмы [HD 720p, 1080p] (Хороший звук DUB, MVO) [ 9.5 GB ] Робин Гуд: Начало / Robin Hood [2018 BDRip 1080p] MVO [HDrezka Studio] + bober100 Скачать
3 | 0
Фильмы 2018 [DVDrip, WEB-DLRip, HDrip] (DUB, MVO) [ 1.41 GB ] Робин Гуд: Начало / Robin Hood [2018 BDRip] bober100 Скачать
2 | 0
Фильмы [HD 720p, 1080p] (Хороший звук DUB, MVO) [ 8.49 GB ] Робин Гуд: Начало / Robin Hood [2018 BDRip-HEVC 1080p ] bober100 Скачать
2 | 0

28-11-2019 20:33  

Отключить всю рекламу на сайте

    Дорогой пользователь! Огромная просьба, поблагодарите релизера, оцените раздачу и оставьте свои комментарий, если Вы скачали Робин Гуд через торрент бесплатно! Внесите свою лепту в развитие PiratBit!
    Комментировать посты могут только пользователи прошедшие не сложную регистрацию
    Показать сообщения:    

    Робин Гуд через торрент
    Скачать бесплатно Робин Гуд
    Робин Гуд скачать торрент
    Робин Гуд смотреть онлайн
    Cкачать фильм Робин Гуд бесплатно
    Робин Гуд скачать торрент в хорошем качестве
    Робин Гуд смотреть онлайн бесплатно в хорошем качестве


    Вы не можете начинать темы
    Вы не можете отвечать на сообщения
    Вы не можете редактировать свои сообщения
    Вы не можете удалять свои сообщения
    Вы не можете голосовать в опросах
    Вы не можете прикреплять файлы к сообщениям
    Вы можете скачивать файлы