Присоединяйтесь к нам в Telegram!, здесь всегда актуальный адрес сайта, оперативная поддержка и многое другое!!

>

5.9

iTunes

7.4

iTunes

9.4

1 сезон

1

7.4

2 сезон

7.2

iTunes

7.3

1 сезон

13

6.1

iTunes

8.3

GOG

30

ULTIMATE

pack

9.9

Лицензия

ВАЖНО

ИГРА 18+

pack

7.3

RePack

MK11

7.7

RePack

jed

7.8

RePack

fifa19

8.5

RePack

RDR2

RePack

NEED FOR SPEED™ PAYBACK

5 сезон

9 сезон

Бесстыжие 9 сезон

Все сериалы

все сериалы на PB.wtf

RePack

FAR CRY 5

Anonymous, доброй ночи, мы катастрофически не успеваем собрать деньги на оплату серверов, помогите нам пожалуйста 5,10,15р., для нас важна любая помощь . В качестве благодарности мы отключим Вам всю рекламу на сайте (укажите свой ник в строку Ваше имя)!

×
  
Magnet ссылка

Mylène Farmer - Сборник клипов / Mylene Farmer Music Videos (Лоран Бутонна) [2007 г., Поп-музыка, короткометражка, мюзикл, фэнтези, DVDRip] pb.wtf

Mylène Farmer - Сборник клипов через торрент pb.wtf

Размер: 1.37 GB | Добавлен: 7 лет 11 мес. назад | Торрент скачан:320 раз
Смотреть онлайн Mylène Farmer - Сборник клипов | Скачать    Ребята, помогите собрать деньги на оплату серверов!!!

02-12-2013 22:03 Mylène Farmer - Сборник клипов Скачать торрент  

Mylène Farmer - Сборник клипов
Год выпуска: 2007
Страна: Франция
Жанр: Поп-музыка, короткометражка, мюзикл, фэнтези,
Продолжительность: 02:47:48
Перевод: Оригинал

Режиссер: Лоран Бутонна

В ролях: Mylène Farmer, Софи Теллье, Андре Буше, Саша Приджович, Сэнди Уайтлоу, Марио Лураши, Янн Бабиле,

Описание: "Милен Фармер — настоящая звезда. Странно, но сейчас настоящих звезд можно пересчитать по пальцам. Они будто-бы перевелись, а может быть, слишком сильно коммерциализировались. Парадокс, но эта рыжеволосая женщина, если чем и приковывает внимание, то исключительно собой. Да, ее шоу роскошны, но они лишь огранка ее обаяния. Да, клипы провокационны и зачастую непристойны, но Милен можно простить все!".
Maman a tort
Plus grandir
Libertine
Sans contrefacon
Tristana
Ainsi soit je...
Pourvu qu'elles soient douces
A quoi je sers
Sans logique
Desenchantee
Je t'aime melancolie
Regrets
Beyond my control
Que mon coeur lac
L'Instant X
XXL
California
Comme j'ai mal
Je te rends ton amour
L'ame-stram-gram
Качество: DVDRip
Формат: AVI
Видео кодек: XviD
Аудио кодек: MPEG Audio
Видео: Xvid 512x384, 25.00fps, 1 166 Kbps
Аудио: MPEG Audio, 48000Hz stereo, 256kbps
Релиз от: rip by Lug 30





General
Complete name : D:Farmer.Lug 30.avi
Format : AVI
Format/Info : Audio Video Interleave
File size : 1.37 GiB
Duration : 2h 47mn
Overall bit rate : 1 166 Kbps
Writing application : VirtualDubMod 1.5.4.1 (build 2178/release)
Writing library : VirtualDubMod build 2178/release

Video
ID : 0
Format : MPEG-4 Visual
Format profile : Advanced Simple@L5
Format settings, BVOP : 1
Format settings, QPel : No
Format settings, GMC : No warppoints
Format settings, Matrix : Custom
Codec ID : XVID
Codec ID/Hint : XviD
Duration : 2h 47mn
Bit rate : 903 Kbps
Width : 512 pixels
Height : 384 pixels
Display aspect ratio : 4:3
Frame rate : 25.000 fps
Color space : YUV
Chroma subsampling : 4:2:0
Bit depth : 8 bits
Scan type : Progressive
Compression mode : Lossy
Bits/(Pixel*Frame) : 0.184
Stream size : 1.06 GiB (77%)
Writing library : XviD 64

Audio
ID : 1
Format : MPEG Audio
Format version : Version 1
Format profile : Layer 2
Codec ID : 50
Duration : 2h 47mn
Bit rate mode : Constant
Bit rate : 256 Kbps
Channel(s) : 2 channels
Sampling rate : 48.0 KHz
Compression mode : Lossy
Stream size : 307 MiB (22%)
Alignment : Aligned on interleaves
Interleave, duration : 80 ms (2.00 video frames)
Interleave, preload duration : 504 ms

pb.wtf



Скачать Mylène Farmer - Сборник клипов через торрент https://pic1.kartinco.top/images/61/2andb.jpg Скачать, смотреть онлайн Mylène Farmer - Сборник клипов бесплантно в хорошем качестве Описание: "Милен Фармер — настоящая звезда. Странно, но сейчас настоящих звезд можно пересчитать по пальцам. Они будто-бы перевелись, а ... 10 10 22
Info! Золотая раздача, скачанное не засчитывается.
Торрент: Зарегистрирован [2013-12-02 22:03] · скачан: 320 раз
Статус: √ проверено
Размер: 1.37 GB
Как cкачать? Как скачать Mylène Farmer - Сборник клипов через торрент | UTorrent



Последний раз редактировалось: lug30 (2013-12-03 03:53), всего редактировалось 1 раз

28-11-2019 20:33  

Отключить всю рекламу на сайте

03-12-2013 02:36 Mylène Farmer - Сборник клипов Скачать торрент  

lug30
Нафига левая ссылка на КиноПоиск?pb.wtf



    Дорогой пользователь! Огромная просьба, поблагодарите релизера, оцените раздачу и оставьте свои комментарий, если Вы скачали Mylène Farmer - Сборник клипов через торрент бесплатно!
    Комментировать посты могут только пользователи прошедшие не сложную регистрацию
    Показать сообщения:    

    Mylène Farmer - Сборник клипов через торрент
    Скачать бесплатно Mylène Farmer - Сборник клипов
    Mylène Farmer - Сборник клипов скачать торрент
    Mylène Farmer - Сборник клипов смотреть онлайн
    Cкачать фильм Mylène Farmer - Сборник клипов бесплатно
    Mylène Farmer - Сборник клипов скачать торрент в хорошем качестве
    Mylène Farmer - Сборник клипов смотреть онлайн бесплатно в хорошем качестве


    Вы не можете начинать темы
    Вы не можете отвечать на сообщения
    Вы не можете редактировать свои сообщения
    Вы не можете удалять свои сообщения
    Вы не можете голосовать в опросах
    Вы не можете прикреплять файлы к сообщениям
    Вы можете скачивать файлы