Anonymous, доброй ночи, присоединяйтесь к нам в Telegram!, здесь всегда актуальный адрес сайта, оперативная поддержка и многое другое!

>

5.6

iTunes

7.4

iTunes

7.9

MVO

1

7.7

1 сезон

6.8

iTunes

7.3

1 сезон

13

6.7

1 сезон

8.3

RePack

30

ULTIMATE

pack

9.9

Лицензия

ВАЖНО

ИГРА 18+

pack

7.3

RePack

MK11

7.7

RePack

jed

7.8

RePack

fifa19

8.5

RePack

RDR2

RePack

NEED FOR SPEED™ PAYBACK

4 сезон

9 сезон

Бесстыжие 9 сезон

Все сериалы

все сериалы на PB.wtf

RePack

FAR CRY 5

Anonymous, доброй ночи, мы катастрофически не успеваем собрать деньги на оплату серверов, помогите нам пожалуйста 5,10,15р., для нас важна любая помощь . В качестве благодарности мы отключим Вам всю рекламу на сайте (укажите свой ник в строку Ваше имя)!

×
  
Magnet ссылка

Универ. Новая общага . Новый сосед / Сезон: 5 / Серии: 1-11, 13-23 из 23 (Константин Смирнов) [2013, Комедия, ситком, WEB-DL 720p] pb.wtf

Универ. Новая общага . Новый сосед через торрент pb.wtf

Размер: 11.52 GB | Добавлен: 6 лет 9 мес. назад | Торрент скачан:115 раз
Смотреть онлайн Универ. Новая общага . Новый сосед | Скачать    Ребята, помогите собрать деньги на оплату серверов!!!

03-12-2013 14:12 Универ. Новая общага . Новый сосед Скачать торрент  


Универ. Новая общага. Новый сосед

Год выпуска: 2013
Страна: Россия, "Comedy Production"
Жанр: Комедия, ситком,
Продолжительность: ~00:25:00
Режиссер: Константин Смирнов
В ролях: Арарат Кещян, Станислав Ярушин, Анна Кузина, Настасья Самбурская, Анна Хилькевич, Владимир Фекленко, Елена Валюшкина, Андрей Лебедев, Сергей Пиоро


Описание: Старого «Универа» о бесшабашном студенческом веселье. В новом сериале герои не только веселятся, но и влюбляются.
Оставленным на второй год пятикурсникам Антону и Кузе привалило счастье. Их старая общага идет под нос, и в новом корпусе их селят в блок с тремя девушками – Кристиной, Машей и Яной. В роли аспиранта в универ возвращается и Майкл – чтобы откосить от армии. Ребята стали старше и… романтичнее. Теперь им хочется не только секса и тусовок, но и настоящих чувств. Однако вызвать взаимность у дам сердца не так просто, как кажется.
Качество картинки в «Универе. Новой общаге» значительно улучшилось: более дорогой и продвинутый формат съемки вплотную приблизил ее к большому кино.





Качество: WEB-DL 720p
Формат: MKV
Видео кодек: MPEG-4 AVC
Аудио кодек: AC3
Видео: MPEG-4 AVC, ~ 3000 Кбит/с, 1280x720, 25.000 fps
Аудио#1: AC3, 2 ch, 192 Кбит/с, 44.1 KHz

скриншот   скриншот   скриншот   скриншот   скриншот   скриншот  

Format : Matroska
Format version : Version 2
File size : 536 MiB
Duration : 25mn 0s
Overall bit rate : 3 000 Kbps
Writing application : Lavf54.59.106
Writing library : Lavf54.59.106

Video
ID : 1
Format : AVC
Format/Info : Advanced Video Codec
Format profile : High@L4.0
Format settings, CABAC : Yes
Format settings, ReFrames : 8 frames
Codec ID : V_MPEG4/ISO/AVC
Duration : 25mn 0s
Bit rate : 2 748 Kbps
Width : 1 280 pixels
Height : 720 pixels
Display aspect ratio : 16:9
Frame rate mode : Constant
Frame rate : 25.000 fps
Color space : YUV
Chroma subsampling : 4:2:0
Bit depth : 8 bits
Scan type : Progressive
Bits/(Pixel*Frame) : 0.119
Stream size : 491 MiB (92%)
Writing library : x264 core 125
Encoding settings : cabac=1 / ref=8 / deblock=1:-1:-1 / analyse=0x3:0x133 / me=umh / subme=9 / psy=1 / psy_rd=1.00:0.15 / mixed_ref=1 / me_range=16 / chroma_me=1 / trellis=2 / 8x8dct=1 / cqm=0 / deadzone=21,11 / fast_pskip=1 / chroma_qp_offset=-3 / threads=18 / lookahead_threads=3 / sliced_threads=0 / nr=0 / decimate=1 / interlaced=0 / bluray_compat=0 / constrained_intra=0 / bframes=3 / b_pyramid=2 / b_adapt=2 / b_bias=0 / direct=3 / weightb=1 / open_gop=0 / weightp=2 / keyint=100 / keyint_min=10 / scenecut=40 / intra_refresh=0 / rc_lookahead=60 / rc=crf / mbtree=1 / crf=17.0 / qcomp=0.60 / qpmin=0 / qpmax=69 / qpstep=4 / vbv_maxrate=3600 / vbv_bufsize=3600 / crf_max=0.0 / nal_hrd=none / ip_ratio=1.40 / aq=1:1.00
Default : Yes
Forced : No

Audio
ID : 2
Format : AC-3
Format/Info : Audio Coding 3
Mode extension : CM (complete main)
Format settings, Endianness : Big
Codec ID : A_AC3
Duration : 25mn 0s
Bit rate mode : Constant
Bit rate : 192 Kbps
Channel count : 2 channels
Channel positions : Front: L R
Sampling rate : 44.1 KHz
Bit depth : 16 bits
Compression mode : Lossy
Delay relative to video : 1mn 5s
Stream size : 34.3 MiB (6%)
Default : Yes
Forced : No
При каждом добавлении создётся новый торрент. Чтобы начать докачку новой серии, пользователям необходимо сделать следующее:
(1) остановить скачивание,
(2) удалить старый торрент у себя из клиента (старые серии удалять не надо),
(3) скачать новый торрент и запустить его у себя в клиенте вместо старого, при этом указать клиенту путь в старую папку куда и должно происходить скачивание новых серий.
Ваш клиент при этом должен произвести хеширование (проверку) старой папки (если не производит сам - помогите ему сделать это), и будет докачивать только те серии которых у вас ещё нет. Старые серии при этом не удаляются, а продолжают раздаваться!
Eсли вы уже удалили старые серии, то предотвратить повторную закачку старых серий можно, отжав галочку в соответсвующих местах при запуске нового торрента. По возможности, желательно не удалять старые серии как можно дольше чтобы релизёр не столько продолжал раздавать старые серии, а смог сконцентрироваться на новых.

pb.wtf



Скачать Универ. Новая общага . Новый сосед через торрент http://cs411123.vk.me/v411123517/9332/8iCKBDgfBlU.jpg Скачать, смотреть онлайн Универ. Новая общага . Новый сосед бесплантно в хорошем качестве Описание: Старого «Универа» о бесшабашном студенческом веселье. В новом сериале герои не только веселятся, но и влюбляются.Оставленным на ... 8.6 10 31
Торрент: Зарегистрирован [2015-01-09 13:41] · скачан: 115 раз
Статус: √ проверено
Размер: 11.52 GB
Как cкачать? Как скачать Универ. Новая общага . Новый сосед через торрент | UTorrent



Последний раз редактировалось: 7Sense (2014-01-19 15:52), всего редактировалось 2 раз(а)

28-11-2019 20:33  

Отключить всю рекламу на сайте

09-01-2015 20:48 Универ. Новая общага . Новый сосед Скачать торрент  

скрины зачёт!глянуть чтоль еще разок ...pb.wtf



    Дорогой пользователь! Огромная просьба, поблагодарите релизера, оцените раздачу и оставьте свои комментарий, если Вы скачали Универ. Новая общага . Новый сосед через торрент бесплатно!
    Комментировать посты могут только пользователи прошедшие не сложную регистрацию
    Показать сообщения:    

    Универ. Новая общага . Новый сосед через торрент
    Скачать бесплатно Универ. Новая общага . Новый сосед
    Универ. Новая общага . Новый сосед скачать торрент
    Универ. Новая общага . Новый сосед смотреть онлайн
    Cкачать фильм Универ. Новая общага . Новый сосед бесплатно
    Универ. Новая общага . Новый сосед скачать торрент в хорошем качестве
    Универ. Новая общага . Новый сосед смотреть онлайн бесплатно в хорошем качестве


    Вы не можете начинать темы
    Вы не можете отвечать на сообщения
    Вы не можете редактировать свои сообщения
    Вы не можете удалять свои сообщения
    Вы не можете голосовать в опросах
    Вы не можете прикреплять файлы к сообщениям
    Вы можете скачивать файлы