Всегда рабочее зеркало без VPN и Proxy просто перед .vidak.icu напиши любое слово или цифру, Пример http://xe6x.vidak.icu

MVO

MVO

1 сезон

1

1 сезон

iTunes

1 сезон

13

1 сезон

Deluxe

pack

Рекомендуем

Repack

30

ВАЖНО

RePack

MK11

RePack

jed

RePack

fifa19

RePack

RDR2

RePack

NEED FOR SPEED™ PAYBACK

Кинопоиск HD

6 сезон

 Острые козырьки 6 сезон

Все сериалы

все сериалы на PB.wtf

RePack

FAR CRY 5
  
Magnet ссылка

Джастин и рыцари доблести / Justin and the Knights of Valour (Мануэль Сисилия / Manuel Sicilia) [2013 г., Мультфильм, приключения, BDRip-AVC, Дубляж, Лицензия] pb.wtf

Джастин и рыцари доблести через торрент pb.wtf

Размер: 2.19 GB | Добавлен: 8 лет 8 мес. назад | Торрент скачан:1087 раз
Смотреть онлайн Джастин и рыцари доблести | Скачать    Ребята, помогите собрать деньги на оплату серверов!!!

03-12-2013 17:20 Джастин и рыцари доблести Скачать торрент  

Джастин и рыцари доблести / Justin and the Knights of Valour
Год выпуска: 2013
Страна: Испания / Aliwood Mediterráneo Producciones, Kandor Graphics, Ono, Out Of The Box Feature
Жанр: Мультфильм, приключения,
Продолжительность: 01:36:10
Перевод: Дубляж [BD RUS]
Субтитры: Нет

Режиссер: Мануэль Сисилия / Manuel Sicilia



В ролях: Фредди Хаймор, Сирша Ронан, Марк Стронг, Дэвид Уоллиамс, Антонио Бандерас, Альфред Молина, Джули Уолтерс, Оливия Уильямс, Чарльз Дэнс, Руперт Эверетт,

Описание: Действие мультфильма разворачивается в магическом мире, о котором мечтает каждый ребёнок. Джастин мечтает стать рыцарем, но на его пути появляется много препятствий бюрократического характера. Даже отец Джастина против рыцарства и хочет, чтобы сын стал придворным служащим. Тогда мальчик, обуреваемый желанием стать настоящим доблестным Рыцарем, сбегает из дома в поисках приключений. По дороге он знакомится с прекрасной девушкой — Талией, вдохновляющей его на новые подвиги, и встречает мудрых рыцарей-наставников, которые обучают его рыцарскому мастерству. Но хватит ли Джастину полученных знаний для того, чтобы справиться с угрозой, которая нависла над его Королевством? Сумеет ли мальчик преодолеть все препятствия и достичь своей мечты?

Качество: BDRip-AVC
Формат: MKV
Видео кодек: H.264
Аудио кодек: AC3
Видео: 1132x474 (2,40:1), 23,976 fps, 2823 Кbps, 0.219 bit/pixel
Аудио: 48 kHz, AC3 Dolby Digital, 3/2 (L,C,R,l,r) + LFE ch, 448.00 kbps

Релиз группы:
Автор рипа: potroks





Общее
Уникальный идентификатор : 203133452186964060019852824258527550873 (0x98D2146F90E8172092E07B68774ADD99)
Полное имя : Dzastin.i.Rytcari.Doblesti.2013.RUS.BDRip.x264.-HELLYWOOD.mkv
Формат : Matroska
Версия формата : Version 4 / Version 2
Размер файла : 2,19 Гбайт
Продолжительность : 1 ч. 35 м.
Общий поток : 3272 Кбит/сек
Название фильма : HELLYWOOD - rip by potroks
Дата кодирования : UTC 2013-12-03 16:57:43
Программа кодирования : mkvmerge v5.9.0 ('On The Loose') built on Dec 15 2012 16:39:58
Библиотека кодирования : libebml v1.3.0 + libmatroska v1.4.0

Видео
Идентификатор : 1
Формат : AVC
Формат/Информация : Advanced Video Codec
Профиль формата : [email protected]
Параметр CABAC формата : Да
Параметр ReFrames формата : 11 кадров
Идентификатор кодека : V_MPEG4/ISO/AVC
Продолжительность : 1 ч. 35 м.
Битрейт : 2823 Кбит/сек
Ширина : 1132 пикселя
Высота : 474 пикселя
Соотношение сторон : 2,40:1
Режим частоты кадров : Постоянный
Частота кадров : 23,976 кадра/сек
Цветовое пространство : YUV
Субдискретизация насыщенности : 4:2:0
Битовая глубина : 8 бит
Тип развёртки : Прогрессивная
Бит/(Пиксели*Кадры) : 0.219
Размер потока : 1,85 Гбайт (84%)
Заголовок : Justin and the Knights of Valour
Библиотека кодирования : x264 core 130 r2273 b3065e6
Настройки программы : cabac=1 / ref=11 / deblock=1:-1:-1 / analyse=0x3:0x133 / me=umh / subme=11 / psy=1 / psy_rd=1.04:0.00 / mixed_ref=1 / me_range=32 / chroma_me=1 / trellis=2 / 8x8dct=1 / cqm=0 / deadzone=21,11 / fast_pskip=0 / chroma_qp_offset=-2 / threads=9 / lookahead_threads=7 / sliced_threads=0 / nr=0 / decimate=0 / interlaced=0 / bluray_compat=0 / constrained_intra=0 / bframes=12 / b_pyramid=2 / b_adapt=2 / b_bias=0 / direct=3 / weightb=1 / open_gop=0 / weightp=2 / keyint=250 / keyint_min=23 / scenecut=40 / intra_refresh=0 / rc_lookahead=60 / rc=2pass / mbtree=0 / bitrate=2823 / ratetol=1.0 / qcomp=0.70 / qpmin=0 / qpmax=69 / qpstep=4 / cplxblur=20.0 / qblur=0.5 / vbv_maxrate=20000 / vbv_bufsize=20000 / nal_hrd=none / ip_ratio=1.35 / pb_ratio=1.25 / aq=1:0.70
Язык : Spanish
Default : Да
Forced : Нет

Аудио
Идентификатор : 2
Формат : AC-3
Формат/Информация : Audio Coding 3
Расширение режима : CM (complete main)
Параметр Endianness формата : Big
Идентификатор кодека : A_AC3
Продолжительность : 1 ч. 35 м.
Вид битрейта : Постоянный
Битрейт : 448 Кбит/сек
Каналы : 6 каналов
Расположение каналов : Front: L C R, Side: L R, LFE
Частота : 48,0 КГц
Битовая глубина : 16 бит
Метод сжатия : С потерями
Размер потока : 307 Мбайт (14%)
Заголовок : Dub | DD 5.1 @ 448 kbps - BD RUS
Язык : Russian
Default : Да
Forced : Да

Меню
00:00:00.000 : :Chapter 01
00:15:15.289 : :Chapter 02
00:28:01.513 : :Chapter 03
00:48:51.386 : :Chapter 04
01:06:21.644 : :Chapter 05
01:25:22.867 : :Chapter 06
01:35:48.033 : :Chapter 07

pb.wtf



Скачать Джастин и рыцари доблести через торрент http://i59.fastpic.ru/big/2013/1203/c3/5a2f3e34d840f51c114177846acbfcc3.jpg Скачать, смотреть онлайн Джастин и рыцари доблести бесплантно в хорошем качестве Описание: Действие мультфильма разворачивается в магическом мире, о котором мечтает каждый ребёнок. Джастин мечтает стать рыцарем, но на ... 9.3 10 19
Info! Золотая раздача, скачанное не засчитывается.
Торрент: Зарегистрирован [2013-12-03 17:20] · скачан: 1 087 раз
Статус: √ проверено
Размер: 2.19 GB
Как cкачать? Как скачать Джастин и рыцари доблести через торрент | UTorrent

% Раздел Тема Автор DL S | L
3D Мультфильмы [ 5.29 GB ] Джастин и рыцари доблести / Justin and the Knights of Valour [2013 мультфильм BDRip 1080p ] Half SideBySide / Горизонтальная анаморфная стереопара slaventi-69 Скачать
1 | 0
3D Мультфильмы [ 4.52 GB ] Джастин и рыцари доблести / Justin and the Knights of Valour [2013 мультфильм BDRip 1080p ] Half SideBySide / Горизонтальная анаморфная стереопара slaventi-69 Скачать
1 | 0
3D Мультфильмы [ 7.43 GB ] Джастин и рыцари доблести в 3Д / Justin and the Knights of Valour 3D [2013 Мультфильм BDrip 1080p]Full OverUnder / Вертикальная стереопара serega768 Скачать
1 | 0
Зарубежные Мультфильмы (BDRip 1080p, 720p, Blu-ray, BD-Remux) [ 15.61 GB ] Джастин и рыцари доблести / Justin and the Knights of Valour [2013 Мультфильм BDRemux DUB] [] лисяра Скачать
1 | 0
Иностранные мультфильмы [ 1.38 GB ] Джастин и рыцари доблести / Justin and the Knights of Valour [2013 мультфильм DVDRip] diletant Скачать
1 | 0
Зарубежные Мультфильмы (DVD) [ 5.02 GB ] Джастин и рыцари доблести / Justin and the Knights of Valour [2013 мультфильм DVD9] R5 voovaz Скачать
1 | 0

28-11-2019 20:33  

Отключить вcю реклaмy на сайте

03-12-2013 21:14 Джастин и рыцари доблести Скачать торрент  

Спасибо , забрал.pb.wtf



    Дорогой пользователь! Огромная просьба, поблагодарите релизера, оцените раздачу и оставьте свои комментарий, если Вы скачали Джастин и рыцари доблести через торрент бесплатно!
    Комментировать посты могут только пользователи прошедшие не сложную регистрацию
    Показать сообщения:    

    Джастин и рыцари доблести через торрент
    Скачать бесплатно Джастин и рыцари доблести
    Джастин и рыцари доблести скачать торрент
    Джастин и рыцари доблести смотреть онлайн
    Cкачать фильм Джастин и рыцари доблести бесплатно
    Джастин и рыцари доблести скачать торрент в хорошем качестве
    Джастин и рыцари доблести смотреть онлайн бесплатно в хорошем качестве


    Вы не можете начинать темы
    Вы не можете отвечать на сообщения
    Вы не можете редактировать свои сообщения
    Вы не можете удалять свои сообщения
    Вы не можете голосовать в опросах
    Вы не можете прикреплять файлы к сообщениям
    Вы можете скачивать файлы