Ссылка на приватное зеркало нашего сайта всего за 1$. Внимание количество ограничено!!!

2 сезон

iTunes

1 сезон

1

iTunes

iTunes

iTunes

1 сезон

RePack

30

ИГРА 18+

pack

ВАЖНО

!!Акция!!

Alien_RageХит недели

RePack

MK11
pack

Забери бонус

RePack

jed

!!Акция!!

Alien_Rage

RePack

fifa19

RePack

Assassins Creed: Odyssey

RePack

NEED FOR SPEED™ PAYBACK

4 сезон

9 сезон

Бесстыжие 9 сезон

Все сериалы

все сериалы на PB.wtf

RePack

FAR CRY 5
  

Самолеты / Planes (Клэй Холл) [2013 г., мультфильм, комедия, приключения, семейный, BDRip, Дубляж (iTunes Russia)] pb.wtf

Самолеты через торрент pb.wtf

Размер: 2.18 GB | Добавлен: 6 лет 10 мес. назад | Торрент скачан:449 раз
Скачать  

04-12-2013 17:36 Самолеты Скачать торрент  

Самолеты / Planes
Год выпуска: 2013
Страна: США / DisneyToon Studios, Prana Studios
Жанр: мультфильм, комедия, приключения, семейный,
Продолжительность: 01:31:56
Перевод: Дубляж (iTunes Russia)

Режиссер: Клэй Холл



В ролях: Дейн Кук, Стейси Кич, Брэд Гэррет, Тери Хэтчер, Джулия Луис-Дрейфус, Приянка Чопра, Джон Клиз, Седрик «Развлекатель», Карлос Аласраки, Роджер Крэйг Смит,

Описание: Дасти Полейполе — скромный трудяга-самолет, работающий сельскохозяйственным распылителем на заштатном провинциальном аэродроме. Однако это не мешает ему мечтать о том, чтобы однажды принять участие в кругосветных гонках самых быстрых самолетов. Одна незадача — Дасти панически боится большой высоты. Поэтому, когда волею случая он все же попадает в число участников отборочного тура воздушных соревнований, ему приходится искать помощи у ветерана военно-морской авиации, отставного истребителя Шкипера. С помощью мудрого наставника Дасти сможет преодолеть свои слабости и бросить вызов надменному чемпиону Рипслингеру, а весь мир будет с замиранием сердца следить за гонкой в небесах!..

Качество: BDRip
Формат: AVI
Видео кодек: XviD
Аудио кодек: AC3
Видео: 720x400 (1.80:1), 23.976 fps, XviD build 50 ~2998 kbps avg, 0.43 bit/pixel
Аудио: 48 kHz, AC3 Dolby Digital, 3/2 (L,C,R,l,r) + LFE ch, ~384 kbps

скриншот   скриншот   скриншот   скриншот   скриншот   скриншот   скриншот   скриншот   скриншот   скриншот  
General
Complete name : I:киноPlanes.2013.BDRip.avi
Format : AVI
Format/Info : Audio Video Interleave
Format profile : OpenDML
File size : 2.18 GiB
Duration : 1h 31mn
Overall bit rate : 3 390 Kbps
Movie name : Planes.2013.BDRip.avi
Director : by coc900
Writing application : VirtualDubMod 1.5.10.3 | www.virtualdub-fr.org || (build 2550/release)
Copyright : Piratbit.net

Video
ID : 0
Format : MPEG-4 Visual
Format profile : Advanced Simple@L5
Format settings, BVOP : 3
Format settings, QPel : Yes
Format settings, GMC : 3 warppoints
Format settings, Matrix : Default (H.263)
Codec ID : XVID
Codec ID/Hint : XviD
Duration : 1h 31mn
Bit rate : 2 994 Kbps
Width : 720 pixels
Height : 400 pixels
Display aspect ratio : 16:9
Frame rate : 23.976 fps
Color space : YUV
Chroma subsampling : 4:2:0
Bit depth : 8 bits
Scan type : Progressive
Compression mode : Lossy
Bits/(Pixel*Frame) : 0.434
Stream size : 1.92 GiB (88%)
Writing library : XviD 1.2.1 (UTC 2008-12-04)

Audio
ID : 1
Format : AC-3
Format/Info : Audio Coding 3
Mode extension : CM (complete main)
Format settings, Endianness : Big
Codec ID : 2000
Duration : 1h 31mn
Bit rate mode : Constant
Bit rate : 384 Kbps
Channel(s) : 6 channels
Channel positions : Front: L C R, Side: L R, LFE
Sampling rate : 48.0 KHz
Bit depth : 16 bits
Compression mode : Lossy
Stream size : 253 MiB (11%)
Alignment : Split accross interleaves
Interleave, duration : 42 ms (1.00 video frame)
Interleave, preload duration : 500 ms
pb.wtf



Скачать Самолеты через торрент http://pic.kartinco.top/images/6/yffhm.jpg Скачать фильм Самолеты через торрент бесплантно в хорошем качестве Описание: Дасти Полейполе — скромный трудяга-самолет, работающий сельскохозяйственным распылителем на заштатном провинциальном аэродроме. ... 9.9 10 11
Info! Золотая раздача, скачанное не засчитывается.
Торрент: Зарегистрирован [2013-12-04 17:36] · скачан: 449 раз
Статус: √ проверено
Размер: 2.18 GB
Как cкачать? Как скачать Самолеты через торрент | qTorrent

% Раздел Тема Автор DL S | L
Иностранные мультфильмы [ 1.37 GB ] Самолеты / Planes [2013 Мультфильм HDRip DUB] [Лизензия / ] лисяра Скачать
1 | 0
Фильмы [HD 720p, 1080p] (Хороший звук DUB, MVO) [ 13.17 GB ] Самолётом поездом машиной / Planes Trains and Automobiles [1987 BDRip 1080p by msltel] 3 x MVO AVO msltel Скачать
1 | 0
Фильмы [HD 720p, 1080p] (Хороший звук DUB, MVO) [ 4.29 GB ] Самолётом поездом машиной / Planes Trains and Automobiles [1987 BDRip 720p by msltel] 3 x MVO AVO msltel Скачать
1 | 0
Фильмы до 2000 г. [ 2.81 GB ] Самолётом поездом машиной / Planes Trains and Automobiles [1987 BDRip AVC by msltel] 3 x MVO AVO msltel Скачать
1 | 0
Discovery [ 507 MB ] Гигантские самолеты. Геркулес LC-130 / Mighty Planes.Hercules LC-130 [2012 Документальный познавательный самолётостроение SATRip ] schultz Скачать
1 | 0
Discovery [ 511 MB ] Гигантские самолеты Антонов-124 / Mighty Planes Antonov-124 [2012 Документальный познавательный самолётостроение SATRip ] schultz Скачать
1 | 0
3D Мультфильмы [ 4.37 GB ] Самолеты: Огонь и вода / Planes: Fire and Rescue [2014 Мультфильм BDRip 1080p ] Анаглиф slaventi-69 Скачать
1 | 0

28-11-2019 20:33  

Отключить всю рекламу на сайте

    Дорогой пользователь! Огромная просьба, поблагодарите релизера, оцените раздачу и оставьте свои комментарий, если Вы скачали Самолеты через торрент бесплатно! Внесите свою лепту в развитие PiratBit!
    Комментировать посты могут только пользователи прошедшие не сложную регистрацию
    Показать сообщения:    

    Самолеты через торрент
    Скачать бесплатно Самолеты
    Самолеты скачать торрент
    Самолеты смотреть онлайн
    Cкачать фильм Самолеты бесплатно
    Самолеты скачать торрент в хорошем качестве
    Самолеты смотреть онлайн бесплатно в хорошем качестве


    Вы не можете начинать темы
    Вы не можете отвечать на сообщения
    Вы не можете редактировать свои сообщения
    Вы не можете удалять свои сообщения
    Вы не можете голосовать в опросах
    Вы не можете прикреплять файлы к сообщениям
    Вы можете скачивать файлы