2 сезон

iTunes

MVO

1

2 сезон

iTunes

iTunes

1 сезон

RePack

30

Новинка

ВАЖНО

ИГРА 18+

pack

RePack

MK11
pack

Легкие деньги

RePack

jed

RePack

fifa19

RePack

RDR2

RePack

NEED FOR SPEED™ PAYBACK

4 сезон

9 сезон

Бесстыжие 9 сезон

Все сериалы

все сериалы на PB.wtf

RePack

FAR CRY 5

Anonymous, добрый вечер, мы не успеваем собрать деньги на оплату серверов за декабрь и январь, помогите нам пожалуйста в это трудное время. В качестве благодарности мы отключим Вам всю рекламу на сайте (укажите свой ник в строку Ваше имя)!

×
  
Magnet ссылка

Видео от Savage / Savage - Videography [1983-1990 г., Italo-dance, VHSRip] pb.wtf

Видео от Savage через торрент pb.wtf

Размер: 702 MB | Добавлен: 7 лет 1 мес. назад | Торрент скачан:152 раза
Скачать  

04-12-2013 20:15 Видео от Savage Скачать торрент  

Видео от Savage
Год выпуска: 1983-1990
Страна: Италия,СССР
Жанр: Italo-dance
Продолжительность: 01:07:47
Перевод: Оригинал

В ролях: Savage (Роберто Дзанетти)

Описание: Роберто Дзанетти — итальянский певец, композитор и автор текстов. Как музыкант более известен под псевдонимом Savage, как продюсер — Robyx. Характерный представитель итало-диско 1980-х годов.
Clip:
01 Mix Italo Trio
02 Twothousandnine
03 Celebrate
04 Don't Cry Tonight
05 Only You
06 Radio
07 Goodbye
Качество: VHSRip
Формат: AVI
Видео кодек: XviD
Аудио кодек: MP3
Видео: Xvid 512x384, 25.00fps,1 448 Kbps
Аудио: MPEG Audio Layer 3, 48000Hz stereo, 110kbps
Релиз от: rs.Bandito.mus

General
Complete name : C:Documents and SettingsAdminМои документыSavage_VHSRipDVD_video_[torrents.avi
Format : AVI
Format/Info : Audio Video Interleave
File size : 702 MiB
Duration : 1h 7mn
Overall bit rate mode : Variable
Overall bit rate : 1 448 Kbps
Writing application : VirtualDubMod 1.5.4.1 (build 2178/release)
Writing library : VirtualDubMod build 2178/release

Video
ID : 0
Format : MPEG-4 Visual
Format profile : Advanced Simple@L5
Format settings, BVOP : 1
Format settings, QPel : No
Format settings, GMC : No warppoints
Format settings, Matrix : Custom
Codec ID : XVID
Codec ID/Hint : XviD
Duration : 1h 7mn
Bit rate : 1 325 Kbps
Width : 512 pixels
Height : 384 pixels
Display aspect ratio : 4:3
Frame rate : 25.000 fps
Color space : YUV
Chroma subsampling : 4:2:0
Bit depth : 8 bits
Scan type : Progressive
Compression mode : Lossy
Bits/(Pixel*Frame) : 0.270
Stream size : 642 MiB (91%)
Writing library : XviD 1.2.1 (UTC 2008-12-04)

Audio
ID : 1
Format : MPEG Audio
Format version : Version 1
Format profile : Layer 3
Mode : Joint stereo
Codec ID : 55
Codec ID/Hint : MP3
Duration : 1h 7mn
Bit rate mode : Variable
Bit rate : 111 Kbps
Nominal bit rate : 128 Kbps
Channel(s) : 2 channels
Sampling rate : 48.0 KHz
Compression mode : Lossy
Stream size : 53.6 MiB (8%)
Alignment : Aligned on interleaves
Interleave, duration : 24 ms (0.60 video frame)
Interleave, preload duration : 541 ms
Writing library : LAME3.98r
Encoding settings : -m j -V 4 -q 2 -lowpass 17 --abr 128

pb.wtf



Скачать Видео от Savage через торрент https://pic.kartinco.top/images/6/b7rpd.jpg Скачать фильм Видео от Savage через торрент бесплантно в хорошем качестве Описание: Роберто Дзанетти — итальянский певец, композитор и автор текстов. Как музыкант более известен под псевдонимом Savage, как ... 10 10 10
Info! Золотая раздача, скачанное не засчитывается.
Торрент: Зарегистрирован [2013-12-04 20:15] · скачан: 152 раз
Статус: √ проверено
Размер: 702 MB
Как cкачать? Как скачать Видео от Savage через торрент | UTorrent

28-11-2019 20:33  

Отключить всю рекламу на сайте

    Дорогой пользователь! Огромная просьба, поблагодарите релизера, оцените раздачу и оставьте свои комментарий, если Вы скачали Видео от Savage через торрент бесплатно! Внесите свою лепту в развитие PiratBit!
    Комментировать посты могут только пользователи прошедшие не сложную регистрацию
    Показать сообщения:    

    Видео от Savage через торрент
    Скачать бесплатно Видео от Savage
    Видео от Savage скачать торрент
    Видео от Savage смотреть онлайн
    Cкачать фильм Видео от Savage бесплатно
    Видео от Savage скачать торрент в хорошем качестве
    Видео от Savage смотреть онлайн бесплатно в хорошем качестве


    Вы не можете начинать темы
    Вы не можете отвечать на сообщения
    Вы не можете редактировать свои сообщения
    Вы не можете удалять свои сообщения
    Вы не можете голосовать в опросах
    Вы не можете прикреплять файлы к сообщениям
    Вы можете скачивать файлы