Присоединяйтесь к нам в Telegram!, здесь всегда актуальный адрес сайта, оперативная поддержка и многое другое!!

>

5.9

iTunes

7.4

iTunes

9.4

1 сезон

1

7.4

2 сезон

7.2

iTunes

7.3

1 сезон

13

6.1

iTunes

8.3

GOG

30

ULTIMATE

pack

9.9

Лицензия

ВАЖНО

ИГРА 18+

pack

7.3

RePack

MK11

7.7

RePack

jed

7.8

RePack

fifa19

8.5

RePack

RDR2

RePack

NEED FOR SPEED™ PAYBACK

5 сезон

9 сезон

Бесстыжие 9 сезон

Все сериалы

все сериалы на PB.wtf

RePack

FAR CRY 5

Anonymous, добрый вечер, мы катастрофически не успеваем собрать деньги на оплату серверов, помогите нам пожалуйста 5,10,15р., для нас важна любая помощь . В качестве благодарности мы отключим Вам всю рекламу на сайте (укажите свой ник в строку Ваше имя)!

×
  
Magnet ссылка

Sandra - 24 клипа / Sandra: The Complete History [1985-2006 г., Поп, Танцевальная, DVDRip] pb.wtf

Sandra - 24 клипа через торрент pb.wtf

Размер: 1.03 GB | Добавлен: 7 лет 11 мес. назад | Торрент скачан:404 раза
Смотреть онлайн Sandra - 24 клипа | Скачать    Ребята, помогите собрать деньги на оплату серверов!!!

04-12-2013 21:35 Sandra - 24 клипа Скачать торрент  

Sandra - 24 клипа
Год выпуска: 1985-2006
Страна: Германия
Жанр: Поп, Танцевальная
Продолжительность: ~ 01:15:00
Перевод: Оригинал

В ролях: Sandra

Описание: Немецкая поп-певица. После распада диско-группы «Arabesque», в которой в 1979—1984 гг. Сандра была ведущей вокалисткой, певица начала успешную сольную карьеру, став одной из самых популярных певиц на европейской эстраде второй половины 1980-х — начала 1990-х. В 1990-е годы Сандра также принимала участие в проекте «Enigma», созданном её мужем Мишелем Крету.
Sandra - A Big Insanity (Life May Be)
Sandra - Around My Heart
Sandra - Don't Be Agressive
Sandra - Everlasting love
Sandra - Forever
Sandra - Heaven Can Wait
Sandra - Hi Hi Hi
Sandra - Hiroshima
Sandra - I Need Love
Sandra - In The Heat Of The Night
Sandra - Innocent Love
Sandra - Johnny Wanna Live
Sandra - Little Girl
Sandra - Loreen
Sandra - Maria Magdalena
Sandra - Maria Magdalena'93 (Remix)
Sandra - Midnight Man
Sandra - Nights In White Satin
Sandra - One more night
Sandra - Secret Land
Sandra - Secret Land'95
Sandra - Stop For A Minute
Sandra - Well Be Together
Качество: DVDRip
Формат: MPEG,avi
Видео кодек: MPEG2, MPEG-4
Аудио кодек: MPEG Audio,MP3
Видео: MPEG2 Video 480x576 (4:3) 25.00fps 2520kbps ; DivX 5 720x530 25.00fps 2 599 Kbps
Аудио: MPEG Audio 44100Hz stereo 224kbps; MPEG Audio Layer 3 44100Hz stereo 224kbps
Релиз от: tfile. evgeny-nex

General
Complete name : I:Sandraклипы_Sandra_[tfile.ru]Sandra - I Need Love.mpg
Format : MPEG-PS
File size : 65.9 MiB
Duration : 3mn 19s
Overall bit rate : 2 777 Kbps
Writing library : encoded by TMPGEnc (ver. 2.510.49.157)

Video
ID : 224 (0xE0)
Format : MPEG Video
Format version : Version 2
Format profile : Main@Main
Format settings, BVOP : Yes
Format settings, Matrix : Custom
Format settings, GOP : M=3, N=18
Duration : 3mn 19s
Bit rate : 2 498 Kbps
Maximum bit rate : 2 520 Kbps
Width : 480 pixels
Height : 576 pixels
Display aspect ratio : 4:3
Frame rate : 25.000 fps
Standard : PAL
Color space : YUV
Chroma subsampling : 4:2:0
Bit depth : 8 bits
Scan type : Interlaced
Scan order : Bottom Field First
Compression mode : Lossy
Bits/(Pixel*Frame) : 0.361
Stream size : 59.3 MiB (90%)
Writing library : TMPGEnc 2.510.49.157

Audio
ID : 192 (0xC0)
Format : MPEG Audio
Format version : Version 1
Format profile : Layer 2
Duration : 3mn 19s
Bit rate mode : Constant
Bit rate : 224 Kbps
Channel(s) : 2 channels
Sampling rate : 44.1 KHz
Compression mode : Lossy
Stream size : 5.32 MiB (8%)

General
Complete name : I:Sandraклипы_Sandra_[tfile.ru]Sandra - Around My Heart.avi
Format : AVI
Format/Info : Audio Video Interleave
File size : 58.4 MiB
Duration : 3mn 8s
Overall bit rate : 2 599 Kbps

Video
ID : 0
Format : MPEG-4 Visual
Format settings, BVOP : No
Format settings, QPel : No
Format settings, GMC : No warppoints
Format settings, Matrix : Default (H.263)
Codec ID : DX50
Codec ID/Hint : DivX 5
Duration : 3mn 8s
Bit rate : 2 365 Kbps
Width : 720 pixels
Height : 530 pixels
Display aspect ratio : 4:3
Frame rate : 25.000 fps
Color space : YUV
Chroma subsampling : 4:2:0
Bit depth : 8 bits
Scan type : Progressive
Compression mode : Lossy
Bits/(Pixel*Frame) : 0.248
Stream size : 53.1 MiB (91%)
Writing library : DivX 5.0.3 (UTC 2003-01-24)

Audio
ID : 1
Format : MPEG Audio
Format version : Version 1
Format profile : Layer 3
Codec ID : 55
Codec ID/Hint : MP3
Duration : 3mn 8s
Bit rate mode : Constant
Bit rate : 224 Kbps
Channel(s) : 2 channels
Sampling rate : 44.1 KHz
Compression mode : Lossy
Delay relative to video : 26ms
Stream size : 5.03 MiB (9%)
Alignment : Split accross interleaves
Interleave, duration : 40 ms (1.00 video frame)
Title : Audio Stream

pb.wtf



Скачать Sandra - 24 клипа через торрент https://pic1.kartinco.top/images/61/ey2va.jpg Скачать, смотреть онлайн Sandra - 24 клипа бесплантно в хорошем качестве Описание: Немецкая поп-певица. После распада диско-группы «Arabesque», в которой в 1979—1984 гг. Сандра была ведущей вокалисткой, певица ... 9.9 10 20
Info! Золотая раздача, скачанное не засчитывается.
Торрент: Зарегистрирован [2013-12-04 21:35] · скачан: 404 раз
Статус: √ проверено
Размер: 1.03 GB
Как cкачать? Как скачать Sandra - 24 клипа через торрент | UTorrent

28-11-2019 20:33  

Отключить всю рекламу на сайте

04-12-2013 23:22 Sandra - 24 клипа Скачать торрент  

Спасибо.Обожаю Сандру.pb.wtf



05-12-2013 02:18 Sandra - 24 клипа Скачать торрент  

ого! какое ретро! pb.wtf



    Дорогой пользователь! Огромная просьба, поблагодарите релизера, оцените раздачу и оставьте свои комментарий, если Вы скачали Sandra - 24 клипа через торрент бесплатно!
    Комментировать посты могут только пользователи прошедшие не сложную регистрацию
    Показать сообщения:    

    Sandra - 24 клипа через торрент
    Скачать бесплатно Sandra - 24 клипа
    Sandra - 24 клипа скачать торрент
    Sandra - 24 клипа смотреть онлайн
    Cкачать фильм Sandra - 24 клипа бесплатно
    Sandra - 24 клипа скачать торрент в хорошем качестве
    Sandra - 24 клипа смотреть онлайн бесплатно в хорошем качестве


    Вы не можете начинать темы
    Вы не можете отвечать на сообщения
    Вы не можете редактировать свои сообщения
    Вы не можете удалять свои сообщения
    Вы не можете голосовать в опросах
    Вы не можете прикреплять файлы к сообщениям
    Вы можете скачивать файлы