2 сезон

iTunes

MVO

1

2 сезон

iTunes

iTunes

1 сезон

RePack

30

Новинка

ВАЖНО

ИГРА 18+

pack

RePack

MK11
pack

Легкие деньги

RePack

jed

RePack

fifa19

RePack

RDR2

RePack

NEED FOR SPEED™ PAYBACK

4 сезон

9 сезон

Бесстыжие 9 сезон

Все сериалы

все сериалы на PB.wtf

RePack

FAR CRY 5

Anonymous, доброй ночи, мы не успеваем собрать деньги на оплату серверов за декабрь и январь, помогите нам пожалуйста в это трудное время. В качестве благодарности мы отключим Вам всю рекламу на сайте (укажите свой ник в строку Ваше имя)!

×
  
Magnet ссылка

Арабески / Arabesque Greatest hits (1983)TVRip [1983 г., Диско, TVRip] pb.wtf

Арабески через торрент pb.wtf

Размер: 690 MB | Добавлен: 7 лет 1 мес. назад | Торрент скачан:97 раз
Скачать  

05-12-2013 18:30 Арабески Скачать торрент  

Арабески
Год выпуска: 1983
Страна: Германия
Жанр: Диско
Продолжительность: 00:56:44
Перевод: Оригинал

В ролях: Жасмин, Сандра, Микаэлла

Описание: Arabesque («Арабески») — немецкая поп-группа, работавшая в жанре диско с элементами хай-энерджи. Основная вокалистка группы Сандра после распада группы продолжила успешную сольную карьеру (в 1990-е гг. также принимала участие в проекте Enigma)....
01. Opening. Hello Mr. Monkey
02. Fly High Little Butterfly
03. Roller Star
04. Hit The Jackpot
05. Marigot Bay
06. Billy's Barbeque
07. Peppermint Jack
08. In For A Penny, In For A Pound
09. Once In A Blue Moon
10. Parties In A Penthouse
11. Rock Me After Midnight
12. Midnight Dancer
13. Love Is Just A Game
14. Friday Night
15. Make Love Whenever You Can
16. High Life
17. Ending. Hello Mr. Monkey
Качество: TVRip
Формат: AVI
Видео кодек: DivX
Аудио кодек: AC3
Видео: DivX 3 512x384, 29.97fps, 1 700 Kbps
Аудио: Dolby AC3 48000Hz stereo, 192kbps

General
Complete name : F:�7 07 2013Арабескиарабески.avi
Format : AVI
Format/Info : Audio Video Interleave
File size : 690 MiB
Duration : 56mn 44s
Overall bit rate : 1 700 Kbps
Writing application : Nandub v1.0rc2
Writing library : Nandub build 1853/release

Video
ID : 0
Format : MPEG-4 Visual
Codec ID : DIV3
Codec ID/Hint : DivX 3 Low
Duration : 56mn 44s
Bit rate : 1 500 Kbps
Width : 512 pixels
Height : 384 pixels
Display aspect ratio : 4:3
Frame rate : 29.970 fps
Color space : YUV
Chroma subsampling : 4:2:0
Bit depth : 8 bits
Compression mode : Lossy
Bits/(Pixel*Frame) : 0.255
Stream size : 609 MiB (88%)

Audio
ID : 1
Format : AC-3
Format/Info : Audio Coding 3
Mode extension : CM (complete main)
Codec ID : 2000
Duration : 56mn 44s
Bit rate mode : Constant
Bit rate : 192 Kbps
Channel(s) : 2 channels
Channel positions : Front: L R
Sampling rate : 48.0 KHz
Bit depth : 16 bits
Compression mode : Lossy
Delay relative to video : 29ms
Stream size : 77.9 MiB (11%)
Alignment : Split accross interleaves
Interleave, duration : 96 ms (2.88 video frames)
Interleave, preload duration : 256 ms

pb.wtf



Скачать Арабески через торрент http://pic.kartinco.top/images/6/4z4si.jpg Скачать фильм Арабески через торрент бесплантно в хорошем качестве Описание: Arabesque («Арабески») — немецкая поп-группа, работавшая в жанре диско с элементами хай-энерджи. Основная вокалистка группы ... 10 10 8
Info! Золотая раздача, скачанное не засчитывается.
Торрент: Зарегистрирован [2013-12-05 18:30] · скачан: 97 раз
Статус: √ проверено
Размер: 690 MB
Как cкачать? Как скачать Арабески через торрент | UTorrent

28-11-2019 20:33  

Отключить всю рекламу на сайте


05-12-2013 21:17 Арабески Скачать торрент  

beer pb.wtf



    Дорогой пользователь! Огромная просьба, поблагодарите релизера, оцените раздачу и оставьте свои комментарий, если Вы скачали Арабески через торрент бесплатно! Внесите свою лепту в развитие PiratBit!
    Комментировать посты могут только пользователи прошедшие не сложную регистрацию
    Показать сообщения:    

    Арабески через торрент
    Скачать бесплатно Арабески
    Арабески скачать торрент
    Арабески смотреть онлайн
    Cкачать фильм Арабески бесплатно
    Арабески скачать торрент в хорошем качестве
    Арабески смотреть онлайн бесплатно в хорошем качестве


    Вы не можете начинать темы
    Вы не можете отвечать на сообщения
    Вы не можете редактировать свои сообщения
    Вы не можете удалять свои сообщения
    Вы не можете голосовать в опросах
    Вы не можете прикреплять файлы к сообщениям
    Вы можете скачивать файлы