Присоединяйтесь к нам в Telegram!, здесь всегда актуальный адрес сайта, оперативная поддержка и многое другое!!

>

5.9

iTunes

7.4

iTunes

9.4

1 сезон

1

7.4

2 сезон

7.2

iTunes

7.3

1 сезон

13

6.1

iTunes

8.3

Пиратка

30

ULTIMATE

pack

9.9

Лицензия

ВАЖНО

ИГРА 18+

pack

7.3

RePack

MK11

7.7

RePack

jed

7.8

RePack

fifa19

8.5

RePack

RDR2

RePack

NEED FOR SPEED™ PAYBACK

5 сезон

9 сезон

Бесстыжие 9 сезон

Все сериалы

все сериалы на PB.wtf

RePack

FAR CRY 5

Anonymous, добрый день, мы катастрофически не успеваем собрать деньги на оплату серверов, помогите нам пожалуйста 5,10,15р., для нас важна любая помощь . В качестве благодарности мы отключим Вам всю рекламу на сайте (укажите свой ник в строку Ваше имя)!

×
  
Magnet ссылка

Видеоклипы от C.C.Catch / C.C.Catch - Catch The Hits - Ultimate video collection HDRip [2005 г., Dance-pop ,Club ,Dance ,Disco, HDRip] pb.wtf

Видеоклипы от C.C.Catch через торрент pb.wtf

Размер: 445 MB | Добавлен: 7 лет 11 мес. назад | Торрент скачан:212 раз
Смотреть онлайн Видеоклипы от C.C.Catch | Скачать    Ребята, помогите собрать деньги на оплату серверов!!!

05-12-2013 19:35 Видеоклипы от C.C.Catch Скачать торрент  

Видеоклипы от C.C.Catch
Год выпуска: 2005
Страна: Германия
Жанр: Dance-pop, Club, Dance, Disco,
Продолжительность: ~ 00:38:00
Перевод: Оригинал

В ролях: C.C.Catch

Описание: Сборник видеоклипов популярной и легендарной певицы 80-х, 90-х C.C.Catch.
.
Каролина Катарина Мюллер
Именно так на самом деле зовут Си Си Кетч, родилась 31 июля 1964 года в Голландии, в небольшом городе Осс. Родители Каролины были гражданами разных государств. Отец Юрген , немец по национальности жил в Германии, а мама Корри ,гражданка Нидерландов жила вместе с дочкой Каролиной в Голландии.
Не известно, было ли детство Каролины типичным для диско-певицы, но легким оно не было - это точно. Семья переезжала с места на место, Оссе, Геффен, Бюнде. Менялись одноклассники, друзья. Окончив начальную школу (в Голландии это 6 классов, потом ты можешь выбирать), Каролина пошла в школу домашнего хозяйства. Там изучают все, что имеет отношению к домоводству. Разбирали пылесос, учились готовить и стирать белье. Также учили работе продавца, например тому, что лучшие вещи в магазине всегда находятся справа.
До 14 лет Каролина редко видела своего отца, мама Корри всегда искала способ соединить семью. Переезд в Бюнде и, соответственно, воссоединение семьи Мюллер состоялось. Каролине с мамой понравилась Германия. Радость Каролины прошла, когда она пошла в 9-ый класс основной школы, где преподавание велось на неизвестном для нее тогда немецком языке.
После окончания школы она начала учиться на дизайнера (изготовителя одежды) и работать на швейной фабрике, это было для неё сплошным кошмаром. Вся атмосфера была чудовищной. Шеф всегда кричал и всех изматывал. Большинство работало сдельно. Каролина ещё училась - делала петли для пуговиц и пришивала рукава. Директор стоял почти что с секундомером и только и делал, что говорил: "Быстрее, быстрее". Начальница настраивала людей друг против друга. Кто не хотел добровольно работать по пятницам дольше положенного, того притесняли. За сверхурочные часы тоже ничего не было, даже выходного. Шеф никогда не был доволен ее стараниями. О том времени у Каролины остались самые мрачные воспоминания.
Однажды вечером в музыкальном кабачке в Бюнде она познакомилась с музыкальной группой. Ее спросили, есть ли у неё желание танцевать и не умеет ли она случайно петь. Каро уже училась всему этому какое-то время тайно в своей комнате, при этом она просто напевала современные хиты. Но она даже не мечтала выступать на публике, теперь Каро знала совершенно точно, кем она должна быть: певицей.
C. C. Catch (СиСи. Кетч) (русск. Поймай Си. Си. - две первые буквы C означают сокращённые имена певицы - Caroline Catherina (русск. Каролин Катарина)) — немецкая поп- и диско-певица. С 2007 года проживает в Лондоне.
Она была открыта в середине 1980-х годов немецким композитором и членом немецкой Top-группы Modern Talking Дитером Боленом. Он очень заинтересовался её певческим талантом и в тот же день пригласил её к себе в студию для прослушивания. Вскоре после этого она подписала с ним контракт, который должен был начать её сольную карьеру
01. Silence
02. Heartbeak Hotel
03. Baby I Need Your Love
04. Cause You Are Young
05. Heaven And Hell
06. Soul Survivor
07. Are You Man Enough
08. Backseat Of Your Cadillac
09. Good Guys Only Win In Movies
10. Heaven And Hell Дискотека-80х Авторадио
Качество: HDRip
Формат: MP4
Видео кодек: MPEG4
Аудио кодек: AAC

Клипы: 01, 03, 04, 05, 06, 07, 08
Видео: MPEG4 Video (H264) 1280x720 24.99fps 1 923 Kbps[VideoHandler]
Аудио: AAC 44100Hz stereo [SoundHandler]

Клипы: 02, 09, 10
Видео:MPEG4 Video (H264) 960x720 25.00fps 1 987 Kbps[VideoHandler]
Аудио: AAC 44100Hz stereo [SoundHandler]






Complete name : F:�7 07 2013C.C.CatchC.C.Catch - Backseat Of Your Cadillac (720p).mp4
Format : MPEG-4
Format profile : Base Media
Codec ID : isom
File size : 46.1 MiB
Duration : 3mn 20s
Overall bit rate mode : Variable
Overall bit rate : 1 923 Kbps
Writing application : Lavf52.40.0

Video
ID : 1
Format : AVC
Format/Info : Advanced Video Codec
Format profile : High@L3.1
Format settings, CABAC : Yes
Format settings, ReFrames : 3 frames
Codec ID : avc1
Codec ID/Info : Advanced Video Coding
Duration : 3mn 20s
Duration_FirstFrame : 40ms
Bit rate mode : Variable
Bit rate : 1 800 Kbps
Width : 1 280 pixels
Height : 720 pixels
Display aspect ratio : 16:9
Frame rate mode : Constant
Frame rate : 25.000 fps
Color space : YUV
Chroma subsampling : 4:2:0
Bit depth : 8 bits
Scan type : Progressive
Bits/(Pixel*Frame) : 0.078
Stream size : 42.9 MiB (93%)
Writing library : x264 core 79
Encoding settings : cabac=1 / ref=3 / deblock=1:0:0 / analyse=0x3:0x113 / me=hex / subme=7 / psy=1 / psy_rd=1.0:0.0 / mixed_ref=1 / me_range=16 / chroma_me=1 / trellis=1 / 8x8dct=1 / cqm=0 / deadzone=21,11 / chroma_qp_offset=-2 / threads=24 / nr=0 / decimate=1 / mbaff=0 / constrained_intra=0 / bframes=3 / b_pyramid=0 / b_adapt=1 / b_bias=0 / direct=1 / wpredb=32 / wpredp=2 / keyint=250 / keyint_min=25 / scenecut=40 / rc_lookahead=40 / rc=abr / mbtree=1 / bitrate=1800 / ratetol=2.2 / qcomp=0.60 / qpmin=10 / qpmax=51 / qpstep=4 / ip_ratio=1.41 / aq=1:1.00

Audio
ID : 2
Format : AAC
Format/Info : Advanced Audio Codec
Format profile : LC
Codec ID : 40
Duration : 3mn 20s
Bit rate mode : Variable
Bit rate : 128 Kbps
Channel(s) : 2 channels
Channel positions : Front: L R
Sampling rate : 44.1 KHz
Compression mode : Lossy
Stream size : 3.07 MiB (7%)

General
Complete name : F:�7 07 2013C.C.CatchC.C.Catch - Are You Man Enough (720p).mp4
Format : MPEG-4
Format profile : Base Media
Codec ID : isom
File size : 37.9 MiB
Duration : 2mn 40s
Overall bit rate mode : Variable
Overall bit rate : 1 987 Kbps
Writing application : Lavf52.40.0

Video
ID : 1
Format : AVC
Format/Info : Advanced Video Codec
Format profile : High@L3.1
Format settings, CABAC : Yes
Format settings, ReFrames : 3 frames
Codec ID : avc1
Codec ID/Info : Advanced Video Coding
Duration : 2mn 40s
Duration_FirstFrame : 40ms
Bit rate mode : Variable
Bit rate : 1 800 Kbps
Width : 1 280 pixels
Height : 720 pixels
Display aspect ratio : 16:9
Frame rate mode : Constant
Frame rate : 25.000 fps
Color space : YUV
Chroma subsampling : 4:2:0
Bit depth : 8 bits
Scan type : Progressive
Bits/(Pixel*Frame) : 0.078
Stream size : 35.4 MiB (93%)
Writing library : x264 core 79
Encoding settings : cabac=1 / ref=3 / deblock=1:0:0 / analyse=0x3:0x113 / me=hex / subme=7 / psy=1 / psy_rd=1.0:0.0 / mixed_ref=1 / me_range=16 / chroma_me=1 / trellis=1 / 8x8dct=1 / cqm=0 / deadzone=21,11 / chroma_qp_offset=-2 / threads=24 / nr=0 / decimate=1 / mbaff=0 / constrained_intra=0 / bframes=3 / b_pyramid=0 / b_adapt=1 / b_bias=0 / direct=1 / wpredb=32 / wpredp=2 / keyint=250 / keyint_min=25 / scenecut=40 / rc_lookahead=40 / rc=abr / mbtree=1 / bitrate=1800 / ratetol=2.2 / qcomp=0.60 / qpmin=10 / qpmax=51 / qpstep=4 / ip_ratio=1.41 / aq=1:1.00

Audio
ID : 2
Format : AAC
Format/Info : Advanced Audio Codec
Format profile : LC
Codec ID : 40
Duration : 2mn 40s
Bit rate mode : Variable
Bit rate : 128 Kbps
Channel(s) : 2 channels
Channel positions : Front: L R
Sampling rate : 44.1 KHz
Compression mode : Lossy
Stream size : 2.44 MiB (6%)

pb.wtf



Скачать Видеоклипы от C.C.Catch через торрент https://pic1.kartinco.top/images/61/t1rvt.jpg Скачать, смотреть онлайн Видеоклипы от C.C.Catch бесплантно в хорошем качестве Описание: Сборник видеоклипов популярной и легендарной певицы 80-х, 90-х C.C.Catch..Каролина Катарина Мюллер Именно так на самом деле зовут ... 9.4 10 16
Info! Золотая раздача, скачанное не засчитывается.
Торрент: Зарегистрирован [2013-12-05 19:35] · скачан: 212 раз
Статус: √ проверено
Размер: 445 MB
Как cкачать? Как скачать Видеоклипы от C.C.Catch через торрент | UTorrent

28-11-2019 20:33  

Отключить всю рекламу на сайте

28-02-2016 09:33 Видеоклипы от C.C.Catch Скачать торрент  

вообще не качаетpb.wtf



03-08-2017 12:01 Видеоклипы от C.C.Catch Скачать торрент  

Дитер Болен все-таки красавец. Я тут где-то прочитал что он в одну харю писал песни для ВСЕХ немецких исполнителей. Уникум, я бы ему при жизни на месте немцев памятник поставил. Ну и Каролина тоже неплоха, у нас пользовалась бешеной популярностью на дискотеках.pb.wtf



    Дорогой пользователь! Огромная просьба, поблагодарите релизера, оцените раздачу и оставьте свои комментарий, если Вы скачали Видеоклипы от C.C.Catch через торрент бесплатно!
    Комментировать посты могут только пользователи прошедшие не сложную регистрацию
    Показать сообщения:    

    Видеоклипы от C.C.Catch через торрент
    Скачать бесплатно Видеоклипы от C.C.Catch
    Видеоклипы от C.C.Catch скачать торрент
    Видеоклипы от C.C.Catch смотреть онлайн
    Cкачать фильм Видеоклипы от C.C.Catch бесплатно
    Видеоклипы от C.C.Catch скачать торрент в хорошем качестве
    Видеоклипы от C.C.Catch смотреть онлайн бесплатно в хорошем качестве


    Вы не можете начинать темы
    Вы не можете отвечать на сообщения
    Вы не можете редактировать свои сообщения
    Вы не можете удалять свои сообщения
    Вы не можете голосовать в опросах
    Вы не можете прикреплять файлы к сообщениям
    Вы можете скачивать файлы