Всегда рабочее зеркало просто перед .vidak.icu напиши любое слово или цифру, Пример http://ljh.vidak.icu

>

7.4

iTunes

7.4

2 сезон

6.6

iTunes

1

7.4

2 сезон

7.2

iTunes

6.0

MVO

13

6.1

iTunes

8.3

Пиратка

30

ULTIMATE

pack

9.9

Лицензия

ВАЖНО

ИГРА 18+

pack

7.3

RePack

MK11

7.7

RePack

jed

7.8

RePack

fifa19

8.5

RePack

RDR2

RePack

NEED FOR SPEED™ PAYBACK

1 сезон

9 сезон

Бесстыжие 9 сезон

Все сериалы

все сериалы на PB.wtf

RePack

FAR CRY 5

Anonymous, добрый вечер, мы катастрофически не успеваем собрать деньги на оплату серверов, помогите нам пожалуйста 5,10,15р., для нас важна любая помощь . В качестве благодарности мы отключим Вам всю рекламу на сайте (укажите свой ник в строку Ваше имя)!

×
  
Magnet ссылка

Кинг Конг / King Kong (Питер Джексон / Peter Jackson) [2005 г., мелодрама, приключения, BDRip] [Extended Edition / Расширенная версия] [AVO] (А.Гаврилов) pb.wtf

Кинг Конг через торрент pb.wtf

Размер: 2.9 GB | Добавлен: 8 лет 1 мес. назад | Торрент скачан:83 раза
Смотреть онлайн Кинг Конг | Скачать    Ребята, помогите собрать деньги на оплату серверов!!!

05-12-2013 20:14 Кинг Конг Скачать торрент  

Кинг Конг / King Kong"Расширенная версия"
Год выпуска: 2005
Страна: США
Жанр: мелодрама, приключения
Продолжительность: 03:20:08
Перевод: Авторский (одноголосый) [А.Гаврилов]
Субтитры: нет

Режиссер: Питер Джексон / Peter Jackson

В ролях: Наоми Уоттс, Джек Блэк, Эдриан Броуди, Томас Кречманн, Колин Хэнкс, Энди Серкис, Эван Парк, Джэми Белл, Лобо Чан, Джон Самнер
Описание: В 1930-м году съемочная группа под предводительством режиссера-неудачника Карла Дэнхэма отправляется на загадочный Остров Черепа неподалеку от Суматры, чтобы изучать легенды о гигантской горилле по кличке Конг. По прибытии на место они обнаруживают, что Кинг Конг и правда существует.
Горилла живет в самой чаще непроходимых джунглей, где помимо него, спрятанные от всего мира, обитают многие создания из доисторических времен. Исследователи оказываются между двух огней — с одной стороны Кинг Конг, а с другой — его враги динозавры…




Качество: BDRip
Формат: AVI
Видео кодек: XviD
Аудио кодек: AC3
Видео: 720x304 (2.37:1), 23.976 fps, XviD build 46 ~1684 kbps avg, 0.32 bit/pixel
Аудио: 48 kHz, AC3 Dolby Digital, 3/2 (L,C,R,l,r) + LFE ch, ~384.00 kbps avg
General
Complete name : E:INTERNETКинг Конг (2005) BDRip.avi
Format : AVI
Format/Info : Audio Video Interleave
Format profile : OpenDML
File size : 2.90 GiB
Duration : 3h 20mn
Overall bit rate : 2 075 Kbps
Writing application : VirtualDubModRus 1.5.10.2 (build 2542/release)
Writing library : VirtualDubMod build 2542/release

Video
ID : 0
Format : MPEG-4 Visual
Format profile : Advanced Simple@L5
Format settings, BVOP : Yes
Format settings, QPel : No
Format settings, GMC : No warppoints
Format settings, Matrix : Default (MPEG)
Codec ID : XVID
Codec ID/Hint : XviD
Duration : 3h 20mn
Bit rate : 1 681 Kbps
Width : 720 pixels
Height : 304 pixels
Display aspect ratio : 2.35:1
Frame rate : 23.976 fps
Color space : YUV
Chroma subsampling : 4:2:0
Bit depth : 8 bits
Scan type : Progressive
Bits/(Pixel*Frame) : 0.320
Stream size : 2.35 GiB (81%)
Writing library : XviD 1.1.2 (UTC 2006-11-01)

Audio
ID : 1
Format : AC-3
Format/Info : Audio Coding 3
Mode extension : CM (complete main)
Codec ID : 2000
Duration : 3h 20mn
Bit rate mode : Constant
Bit rate : 384 Kbps
Channel(s) : 6 channels
Channel positions : Front: L C R, Side: L R, LFE
Sampling rate : 48.0 KHz
Bit depth : 16 bits
Stream size : 550 MiB (19%)
Alignment : Split accross interleaves
Interleave, duration : 42 ms (1.00 video frame)
Interleave, preload duration : 500 ms
Title : Гаврилов
pb.wtf



Скачать Кинг Конг через торрент http://i57.fastpic.ru/big/2013/1205/53/995e78a13ee9c885eb82907781d31b53.jpg Скачать, смотреть онлайн Кинг Конг бесплантно в хорошем качестве Описание: В 1930-м году съемочная группа под предводительством режиссера-неудачника Карла Дэнхэма отправляется на загадочный Остров Черепа ... 9.6 10 12
Info! Золотая раздача, скачанное не засчитывается.
Торрент: Зарегистрирован [2013-12-05 20:14] · скачан: 83 раз
Статус: √ проверено
Размер: 2.9 GB
Как cкачать? Как скачать Кинг Конг через торрент | UTorrent

% Раздел Тема Автор DL S | L
Фильмы с авторской озвучкой [ 4 GB ] Кинг Конг против Годзиллы / Kingu Kongu tai Gojira [1962 BDRip 720p Авторский одноголосый Андрей Дольский] от ExKinoRay dumbia Скачать
1 | 0
Классика зарубежного кино [ 10.69 GB ] Кинг-Конг / King Kong [1976 BDRip-HEVC 1080p] MVO + DVO + AVO RealOldGamer Скачать
1 | 0
Фильмы [HD 720p, 1080p] (Хороший звук DUB, MVO) [ 8.64 GB ] Кинг Конг / King Kong [2005 BDRip 1080p HEVC ] [Расширенная версия / Extended Cut] Мичман37 Скачать
2 | 0
Ultra HD (UHD: 2K, 4K, 8K) — видео сверхвысокой чёткости [ 70.7 GB ] Кинг Конг / King Kong [2005 UHD BDRip 2160p] DUB + 2xAVO + DVO + MVO [Расширенная Версия] sheker187 Скачать
1 | 0
Ultra HD (UHD: 2K, 4K, 8K) — видео сверхвысокой чёткости [ 100.19 GB ] Кинг Конг / King Kong [2005 Мело UHD BDRemux 2160p] 2xAVO+2xMVO +MVO +DUB [Режиссерская версия] [] bober100 Скачать
1 | 0
Фильмы [HD 720p, 1080p] (Хороший звук DUB, MVO) [ 10.06 GB ] Кинг Конг / King Kong [1933 BDRip 1080p by msltel] DVO msltel Скачать
1 | 0
Фильмы [HD 720p, 1080p] (Хороший звук DUB, MVO) [ 3.95 GB ] Кинг Конг / King Kong [1933 BDRip 720p by msltel] DVO msltel Скачать
1 | 0

28-11-2019 20:33  

Отключить всю рекламу на сайте

    Дорогой пользователь! Огромная просьба, поблагодарите релизера, оцените раздачу и оставьте свои комментарий, если Вы скачали Кинг Конг через торрент бесплатно!
    Комментировать посты могут только пользователи прошедшие не сложную регистрацию
    Показать сообщения:    

    Кинг Конг через торрент
    Скачать бесплатно Кинг Конг
    Кинг Конг скачать торрент
    Кинг Конг смотреть онлайн
    Cкачать фильм Кинг Конг бесплатно
    Кинг Конг скачать торрент в хорошем качестве
    Кинг Конг смотреть онлайн бесплатно в хорошем качестве


    Вы не можете начинать темы
    Вы не можете отвечать на сообщения
    Вы не можете редактировать свои сообщения
    Вы не можете удалять свои сообщения
    Вы не можете голосовать в опросах
    Вы не можете прикреплять файлы к сообщениям
    Вы можете скачивать файлы