Присоединяйтесь к нам в Telegram!, здесь всегда актуальный адрес сайта, оперативная поддержка и многое другое!!

>

5.9

iTunes

7.4

iTunes

9.4

1 сезон

1

7.4

2 сезон

7.2

iTunes

7.3

1 сезон

13

6.1

iTunes

8.3

Пиратка

30

ULTIMATE

pack

9.9

Лицензия

ВАЖНО

ИГРА 18+

pack

7.3

RePack

MK11

7.7

RePack

jed

7.8

RePack

fifa19

8.5

RePack

RDR2

RePack

NEED FOR SPEED™ PAYBACK

5 сезон

9 сезон

Бесстыжие 9 сезон

Все сериалы

все сериалы на PB.wtf

RePack

FAR CRY 5

Anonymous, добрый день, мы катастрофически не успеваем собрать деньги на оплату серверов, помогите нам пожалуйста 5,10,15р., для нас важна любая помощь . В качестве благодарности мы отключим Вам всю рекламу на сайте (укажите свой ник в строку Ваше имя)!

×
  
Magnet ссылка

Видеоклипы от Aerosmith / Aerosmith - Video Collection [1982-2012 г., Hard Rock, DVDRip-AVC] pb.wtf

Видеоклипы от Aerosmith через торрент pb.wtf

Размер: 2.91 GB | Добавлен: 7 лет 11 мес. назад | Торрент скачан:98 раз
Смотреть онлайн Видеоклипы от Aerosmith | Скачать    Ребята, помогите собрать деньги на оплату серверов!!!

06-12-2013 07:33 Видеоклипы от Aerosmith Скачать торрент  

Видеоклипы от Aerosmith
Год выпуска: 1982-2012
Страна: США Eagle Rock Entertainment
Жанр: Hard Rock
Продолжительность: 01:48:15
Перевод: Оригинал

В ролях: Steven Tyler – lead vocals, harmonica, piano, percussion
Tom Hamilton – bass, backing vocals
Joey Kramer – drums
Joe Perry – lead guitar, rhythm guitar, backing vocals, lead vocals
Brad Whitford – rhythm guitar, backing vocals,

Описание: За следующие годы группа выпустила ряд успешных пластинок, много гастролировала и пользовалась большой популярностью, но потом столкнулась с проблемами наркотической и алкогольной зависимости, которые чуть не стали причиной распада. В тяжёлый период 1979—1984 Перри и Уитфорд ушли из Aerosmith, но во многом благодаря усилиям менеджера Тима Коллинза оригинальный состав был восстановлен, и группа фактически возродилась. С тех пор Aerosmith добились даже большего, чем в 70-е.
Продано 140 млн альбомов Aerosmith, из них 66.5 — в Соединённых Штатах. Это самый высокий результат среди американских команд, играющих хард-рок, и второй в мире после австралийцев AC/DC. По количеству золотых, платиновых и мультиплатиновых альбомов Aerosmith первые среди американских групп. 21 песня Смитов попала в Топ 40, 9 занимали первые места в хит-парадах мейнстрима, группа получила 4 Грэмми. Aerosmith оказали сильное влияние на развитие разных музыкальных направлений, сочетая в своём творчестве элементы хард-рока, хэви-метала, поп-музыки, глэма, блюза и рэпа.

Качество: DVDRip-AVC
Формат: MKV
Видео кодек: AVC
Аудио кодек: AC3
Видео: MPEG4 Video (H264) 720x576 (4:3), 29.97fps, 3 894 Kbps
Аудио: Dolby AC3 48000Hz stereo, 320 Kbps
Релиз от: teplov01





General
Unique ID : 168348648403719580577546155723716462494 (0x7EA6C532C2870C1E037BA147C20E879E)
Complete name : I:aerosmith_[tfile.ru]�6. Crazy.mkv
Format : Matroska
Format version : Version 2
File size : 174 MiB
Duration : 6mn 14s
Overall bit rate : 3 894 Kbps
Writing application : Lavf51.12.1
Writing library : Lavf51.12.1

Video
ID : 1
Format : AVC
Format/Info : Advanced Video Codec
Format profile : Main@L3.1
Format settings, CABAC : Yes
Format settings, ReFrames : 8 frames
Format settings, GOP : M=1, N=12
Codec ID : V_MPEG4/ISO/AVC
Duration : 6mn 14s
Bit rate : 3 496 Kbps
Width : 720 pixels
Height : 576 pixels
Display aspect ratio : 4:3
Frame rate mode : Variable
Frame rate : 29.970 fps
Standard : PAL
Color space : YUV
Chroma subsampling : 4:2:0
Bit depth : 8 bits
Scan type : Progressive
Bits/(Pixel*Frame) : 0.281
Stream size : 156 MiB (90%)
Language : English

Audio
ID : 2
Format : AC-3
Format/Info : Audio Coding 3
Mode extension : CM (complete main)
Codec ID : A_AC3
Duration : 6mn 14s
Bit rate mode : Constant
Bit rate : 320 Kbps
Channel(s) : 2 channels
Channel positions : Front: L R
Sampling rate : 48.0 KHz
Bit depth : 16 bits
Compression mode : Lossy
Stream size : 14.3 MiB (8%)
Language : English

pb.wtf



Скачать Видеоклипы от Aerosmith через торрент https://pic1.kartinco.top/images/61/lwk8h.jpg Скачать, смотреть онлайн Видеоклипы от Aerosmith бесплантно в хорошем качестве Описание: За следующие годы группа выпустила ряд успешных пластинок, много гастролировала и пользовалась большой популярностью, но потом ... 9.8 10 4
Info! Золотая раздача, скачанное не засчитывается.
Торрент: Зарегистрирован [2013-12-06 07:33] · скачан: 98 раз
Статус: √ проверено
Размер: 2.91 GB
Как cкачать? Как скачать Видеоклипы от Aerosmith через торрент | UTorrent



Последний раз редактировалось: lug30 (2013-12-06 09:17), всего редактировалось 3 раз(а)

28-11-2019 20:33  

Отключить всю рекламу на сайте

    Дорогой пользователь! Огромная просьба, поблагодарите релизера, оцените раздачу и оставьте свои комментарий, если Вы скачали Видеоклипы от Aerosmith через торрент бесплатно!
    Комментировать посты могут только пользователи прошедшие не сложную регистрацию
    Показать сообщения:    

    Видеоклипы от Aerosmith через торрент
    Скачать бесплатно Видеоклипы от Aerosmith
    Видеоклипы от Aerosmith скачать торрент
    Видеоклипы от Aerosmith смотреть онлайн
    Cкачать фильм Видеоклипы от Aerosmith бесплатно
    Видеоклипы от Aerosmith скачать торрент в хорошем качестве
    Видеоклипы от Aerosmith смотреть онлайн бесплатно в хорошем качестве


    Вы не можете начинать темы
    Вы не можете отвечать на сообщения
    Вы не можете редактировать свои сообщения
    Вы не можете удалять свои сообщения
    Вы не можете голосовать в опросах
    Вы не можете прикреплять файлы к сообщениям
    Вы можете скачивать файлы