Присоединяйтесь к нам в Telegram!, здесь всегда актуальный адрес сайта, оперативная поддержка и многое другое!!

>

5.9

iTunes

7.4

iTunes

9.4

1 сезон

1

7.4

2 сезон

7.2

iTunes

7.3

1 сезон

13

6.1

iTunes

8.3

GOG

30

ULTIMATE

pack

9.9

Лицензия

ВАЖНО

ИГРА 18+

pack

7.3

RePack

MK11

7.7

RePack

jed

7.8

RePack

fifa19

8.5

RePack

RDR2

RePack

NEED FOR SPEED™ PAYBACK

5 сезон

9 сезон

Бесстыжие 9 сезон

Все сериалы

все сериалы на PB.wtf

RePack

FAR CRY 5

Anonymous, доброе утро, мы катастрофически не успеваем собрать деньги на оплату серверов, помогите нам пожалуйста 5,10,15р., для нас важна любая помощь . В качестве благодарности мы отключим Вам всю рекламу на сайте (укажите свой ник в строку Ваше имя)!

×
  
Magnet ссылка

Видеоклипы от Bad Boys Blue / Bad Boys Blue Video Collection [1985-1998 г., Euro House, Synth-pop, Disco, DVDRip] pb.wtf

Видеоклипы от Bad Boys Blue через торрент pb.wtf

Размер: 857 MB | Добавлен: 7 лет 11 мес. назад | Торрент скачан:223 раза
Смотреть онлайн Видеоклипы от Bad Boys Blue | Скачать    Ребята, помогите собрать деньги на оплату серверов!!!

06-12-2013 12:21 Видеоклипы от Bad Boys Blue Скачать торрент  

Видеоклипы от Bad Boys Blue
Год выпуска: 1985-1998
Страна: Германия Edel Germany GmbH
Жанр: Euro House, Synth-pop, Disco
Продолжительность: 01:02:17
Перевод: Оригинал

В ролях: Bad Boys Blue

Описание: "Крутые парни в синем" или "Bad Boys Blue"... Сегодня трудно поверить, что всё началось в далёком 1984 году с сингла "L.O.V.E. In My Car". Настоящий успех к трио пришёл только весной 1985 года, когда следующий сингл «You’re A Woman» произвёл настоящий фурор во многих европейских странах, моментально оказавшись в первой десятке хит-парадов. В этом же году был выпущен первый студийный альбом Hot Girls — Bad Boys... «You’re A Woman» открывает не только первый альбом группы, но и первый официальный сборник видеоклипов легендарных "Bad Boys Blue".
01. You're A Woman (1985)
02. Pretty Young Girl (1985)
03. Love Really Hurts Without You (1986)
04. I Wanna Hear Your Heartbeat (1986)
05. Kisses And Tears (1986)
06. Come Back And Stay (1987)
07. Don't Walk Away Suzanne (1987)
08. Lovers In The Sand (1987)
09. A World Without You (1988)
10. Hungry For Love (1989)
11. A Train To Nowhere (1989)
12. How I Need You (1990)
13. Queen Of Hearts (1990)
14. Save Your Love (1992)
15. You're A Woman '98 (1998)
16. The Turbomegamix '98 (1998)
Качество: DVDRip
Формат: AVI
Видео кодек: XviD
Аудио кодек: MPEG Audio
Видео: Xvid 704x544, 25.00fps, 1 689 Kbps
Аудио: MPEG Audio, 48000Hz stereo, 224kbps





General
Complete name : D:14 10 2013Bad.Boys.Blue.Video.Collection.1985-2005.DVDRip.Roy.avi
Format : AVI
Format/Info : Audio Video Interleave
File size : 857 MiB
Duration : 1h 2mn
Overall bit rate : 1 923 Kbps
Writing application : VirtualDubMod 1.5.10.2 (build 2540/release)
Writing library : VirtualDubMod build 2540/release

Video
ID : 0
Format : MPEG-4 Visual
Format profile : Advanced Simple@L5
Format settings, BVOP : 2
Format settings, QPel : No
Format settings, GMC : No warppoints
Format settings, Matrix : Default (H.263)
Muxing mode : Packed bitstream
Codec ID : XVID
Codec ID/Hint : XviD
Duration : 1h 2mn
Bit rate : 1 689 Kbps
Width : 704 pixels
Height : 544 pixels
Display aspect ratio : 1.294
Frame rate : 25.000 fps
Color space : YUV
Chroma subsampling : 4:2:0
Bit depth : 8 bits
Scan type : Progressive
Compression mode : Lossy
Bits/(Pixel*Frame) : 0.176
Stream size : 753 MiB (88%)
Writing library : XviD 1.2.1 (UTC 2008-12-04)

Audio
ID : 1
Format : MPEG Audio
Format version : Version 1
Format profile : Layer 2
Codec ID : 50
Duration : 1h 2mn
Bit rate mode : Constant
Bit rate : 224 Kbps
Channel(s) : 2 channels
Sampling rate : 48.0 KHz
Compression mode : Lossy
Stream size : 99.8 MiB (12%)
Alignment : Aligned on interleaves
Interleave, duration : 40 ms (1.00 video frame)
Interleave, preload duration : 504 ms

pb.wtf



Скачать Видеоклипы от Bad Boys Blue через торрент https://pic1.kartinco.top/images/61/cizjh.jpg Скачать, смотреть онлайн Видеоклипы от Bad Boys Blue бесплантно в хорошем качестве Описание: "Крутые парни в синем" или "Bad Boys Blue"... Сегодня трудно поверить, что всё началось в далёком 1984 году с сингла "L.O.V.E. In ... 9.9 10 14
Info! Золотая раздача, скачанное не засчитывается.
Торрент: Зарегистрирован [2013-12-06 12:21] · скачан: 223 раз
Статус: √ проверено
Размер: 857 MB
Как cкачать? Как скачать Видеоклипы от Bad Boys Blue через торрент | UTorrent

28-11-2019 20:33  

Отключить всю рекламу на сайте

06-12-2013 13:02 Видеоклипы от Bad Boys Blue Скачать торрент  

Спасибо,это моя молодость!pb.wtf



06-12-2013 13:15 Видеоклипы от Bad Boys Blue Скачать торрент  

evgeniii писал(а):

Спасибо,это моя молодость!

моя тожеpb.wtf



06-12-2013 13:26 Видеоклипы от Bad Boys Blue Скачать торрент  

lug30
спасибо))pb.wtf



06-12-2013 13:29 Видеоклипы от Bad Boys Blue Скачать торрент  

lyokaa писал(а):

lug30
спасибо))

Всегда на Здоровье!Всем отличных просмотров и классных настроений!!!!!pb.wtf



07-08-2014 14:19 Видеоклипы от Bad Boys Blue Скачать торрент  

Спасибо !pb.wtf



    Дорогой пользователь! Огромная просьба, поблагодарите релизера, оцените раздачу и оставьте свои комментарий, если Вы скачали Видеоклипы от Bad Boys Blue через торрент бесплатно!
    Комментировать посты могут только пользователи прошедшие не сложную регистрацию
    Показать сообщения:    

    Видеоклипы от Bad Boys Blue через торрент
    Скачать бесплатно Видеоклипы от Bad Boys Blue
    Видеоклипы от Bad Boys Blue скачать торрент
    Видеоклипы от Bad Boys Blue смотреть онлайн
    Cкачать фильм Видеоклипы от Bad Boys Blue бесплатно
    Видеоклипы от Bad Boys Blue скачать торрент в хорошем качестве
    Видеоклипы от Bad Boys Blue смотреть онлайн бесплатно в хорошем качестве


    Вы не можете начинать темы
    Вы не можете отвечать на сообщения
    Вы не можете редактировать свои сообщения
    Вы не можете удалять свои сообщения
    Вы не можете голосовать в опросах
    Вы не можете прикреплять файлы к сообщениям
    Вы можете скачивать файлы