Присоединяйтесь к нам в Telegram!, здесь всегда актуальный адрес сайта, оперативная поддержка и многое другое!!

>

5.9

iTunes

7.4

iTunes

9.4

1 сезон

1

7.4

2 сезон

7.2

iTunes

7.3

1 сезон

13

6.1

iTunes

8.3

Пиратка

30

ULTIMATE

pack

9.9

Лицензия

ВАЖНО

ИГРА 18+

pack

7.3

RePack

MK11

7.7

RePack

jed

7.8

RePack

fifa19

8.5

RePack

RDR2

RePack

NEED FOR SPEED™ PAYBACK

5 сезон

9 сезон

Бесстыжие 9 сезон

Все сериалы

все сериалы на PB.wtf

RePack

FAR CRY 5

Anonymous, доброе утро, мы катастрофически не успеваем собрать деньги на оплату серверов, помогите нам пожалуйста 5,10,15р., для нас важна любая помощь . В качестве благодарности мы отключим Вам всю рекламу на сайте (укажите свой ник в строку Ваше имя)!

×
  
Magnet ссылка

Видеоклипы от Falco / Falco -Everything [2000 г., New age, DVDRip] pb.wtf

Видеоклипы от Falco через торрент pb.wtf

Размер: 1.37 GB | Добавлен: 7 лет 11 мес. назад | Торрент скачан:59 раз
Смотреть онлайн Видеоклипы от Falco | Скачать    Ребята, помогите собрать деньги на оплату серверов!!!

06-12-2013 13:24 Видеоклипы от Falco Скачать торрент  

Видеоклипы от Falco
Год выпуска: 2000
Страна: Австрия
Жанр: New age
Продолжительность: 01:11:55
Перевод: Оригинал

В ролях: Falco

Описание: Johann Holzel родился в Wien Margareten (Вена) 19 Февраля 1957. Обучался в Музыкальной Консерватории в Вене и начинал играть в различных группах, в Вене, а также в Западном Берлине. В 1977, он решил изменить свое имя на Falco, в честь восточнонемецкого лыжника Falko Weisspflog. В 1996, Falco решил покинуть любимую Вену и уехал в Доминиканскую Республику, из-за австрийских критиков, которые были всегда настроны против него. После выхода в 1996-м году песни "Naked", он работает над своим последним альбомом, он почти завершил работу над ним и предполагалось выпустить его под названием "Egoisten". Но он вышел после его смерти с другим названием "Out of the Dark", Falco умер в фатальной автомобильной аварии в Доминиканской Республике 6 февраля 1998. Релиз состоит из лучших видеоклипов музыканта.
Доп. информация:
01. Rock Me Amadeus
02. Titanic
03. Egoist (Remix`98 )
04. Komissar (Club 69 Remix)
05. Helden von heute (ReEdit`98 )
06. No Time for Revolution
07. Jeanny
08. Coming Home (Jeanny Part II)
09. Naked
10. Vienna Calling (ReEdit 2000)
11. Mutter, Der Mann Mit Dem Koks Ist Da
12. Wiener Blut
13. Push! Push!
14. Junge Roemer
15. The Sound Of Musik (Zilk-Version)
16. Emotional
17. Out Of The Dark
18. Verdammt Wir Leben Noch
Качество: DVDRip
Формат: AVI
Видео кодек: XviD
Аудио кодек: MP3
Видео: Xvid 608x464, 25.00fps, 2 721 Kbps
Аудио: MPEG Audio Layer 3, 48000Hz stereo, 179kbps

General
Complete name : E:FALCO.avi
Format : AVI
Format/Info : Audio Video Interleave
File size : 1.37 GiB
Duration : 1h 11mn
Overall bit rate mode : Variable
Overall bit rate : 2 721 Kbps
Writing application : VirtualDubMod 1.5.4.1 (build 2178/release)
Writing library : VirtualDubMod build 2178/release

Video
ID : 0
Format : MPEG-4 Visual
Format profile : Advanced Simple@L5
Format settings, BVOP : 1
Format settings, QPel : No
Format settings, GMC : No warppoints
Format settings, Matrix : Custom
Codec ID : XVID
Codec ID/Hint : XviD
Duration : 1h 11mn
Bit rate : 2 529 Kbps
Width : 608 pixels
Height : 464 pixels
Display aspect ratio : 4:3
Frame rate : 25.000 fps
Color space : YUV
Chroma subsampling : 4:2:0
Bit depth : 8 bits
Scan type : Progressive
Compression mode : Lossy
Bits/(Pixel*Frame) : 0.359
Stream size : 1.27 GiB (93%)
Writing library : XviD 1.2.1 (UTC 2008-12-04)

Audio
ID : 1
Format : MPEG Audio
Format version : Version 1
Format profile : Layer 3
Mode : Joint stereo
Mode extension : MS Stereo
Codec ID : 55
Codec ID/Hint : MP3
Duration : 1h 11mn
Bit rate mode : Variable
Bit rate : 180 Kbps
Nominal bit rate : 192 Kbps
Channel(s) : 2 channels
Sampling rate : 48.0 KHz
Compression mode : Lossy
Stream size : 92.6 MiB (7%)
Alignment : Aligned on interleaves
Interleave, duration : 24 ms (0.60 video frame)
Interleave, preload duration : 522 ms
Writing library : LAME3.98r
Encoding settings : -m j -V 4 -q 2 -lowpass 18.6 --abr 192

pb.wtf



Скачать Видеоклипы от Falco через торрент https://pic1.kartinco.top/images/61/at6fp.jpg Скачать, смотреть онлайн Видеоклипы от Falco бесплантно в хорошем качестве Описание: Johann Holzel родился в Wien Margareten (Вена) 19 Февраля 195 Обучался в Музыкальной Консерватории в Вене и начинал играть в ... 10 10 9
Info! Золотая раздача, скачанное не засчитывается.
Торрент: Зарегистрирован [2013-12-06 13:24] · скачан: 59 раз
Статус: √ проверено
Размер: 1.37 GB
Как cкачать? Как скачать Видеоклипы от Falco через торрент | UTorrent

28-11-2019 20:33  

Отключить всю рекламу на сайте

    Дорогой пользователь! Огромная просьба, поблагодарите релизера, оцените раздачу и оставьте свои комментарий, если Вы скачали Видеоклипы от Falco через торрент бесплатно!
    Комментировать посты могут только пользователи прошедшие не сложную регистрацию
    Показать сообщения:    

    Видеоклипы от Falco через торрент
    Скачать бесплатно Видеоклипы от Falco
    Видеоклипы от Falco скачать торрент
    Видеоклипы от Falco смотреть онлайн
    Cкачать фильм Видеоклипы от Falco бесплатно
    Видеоклипы от Falco скачать торрент в хорошем качестве
    Видеоклипы от Falco смотреть онлайн бесплатно в хорошем качестве


    Вы не можете начинать темы
    Вы не можете отвечать на сообщения
    Вы не можете редактировать свои сообщения
    Вы не можете удалять свои сообщения
    Вы не можете голосовать в опросах
    Вы не можете прикреплять файлы к сообщениям
    Вы можете скачивать файлы