Присоединяйтесь к нам в Telegram!, здесь всегда актуальный адрес сайта, оперативная поддержка и многое другое!!

>

5.9

iTunes

7.4

iTunes

9.4

1 сезон

1

7.4

2 сезон

7.2

iTunes

7.3

1 сезон

13

6.1

iTunes

8.3

GOG

30

ULTIMATE

pack

9.9

Лицензия

ВАЖНО

ИГРА 18+

pack

7.3

RePack

MK11

7.7

RePack

jed

7.8

RePack

fifa19

8.5

RePack

RDR2

RePack

NEED FOR SPEED™ PAYBACK

5 сезон

9 сезон

Бесстыжие 9 сезон

Все сериалы

все сериалы на PB.wtf

RePack

FAR CRY 5

Anonymous, добрый вечер, мы катастрофически не успеваем собрать деньги на оплату серверов, помогите нам пожалуйста 5,10,15р., для нас важна любая помощь . В качестве благодарности мы отключим Вам всю рекламу на сайте (укажите свой ник в строку Ваше имя)!

×
  
Magnet ссылка

Женя Белоусов - Клипы [1991 г., Рор, TVRip] pb.wtf

Женя Белоусов - Клипы через торрент pb.wtf

Размер: 493 MB | Добавлен: 7 лет 11 мес. назад | Торрент скачан:38 раз
Смотреть онлайн Женя Белоусов - Клипы | Скачать    Ребята, помогите собрать деньги на оплату серверов!!!

06-12-2013 15:16 Женя Белоусов - Клипы Скачать торрент  

Женя Белоусов - Клипы
Год выпуска: 1991
Страна: СССР
Жанр: Pop
Продолжительность: ~00:23:22
Перевод: Оригинал

В ролях: Женя Белоусов

Описание: Евгений Белоусов - известная в музыкальном мире личность. Он пришел в свет 10 сентября далекого 1964 года в городе Курск. Дата смерти музыканта — 2 июня 1997. Умер певец в столице РФ, в городе Москва.
За свою относительно недолгую жизнь артист успел войти в сердца многих соотечественников с простыми дворовыми хитами, которые мы все так любили в детстве. Про то, как можно создавать такие красивые песни мог бы рассказать сам артист. Жаль, что такого творческого гения музыки с нами уже нет. Тем не менее песни Белоусова еще поются на сцене. Его хиты используют многие соотечественники.
1. Алёшка
2. Девочка моя синеглазая
3. Девчонка девчоночка
4. Золотые купола
5.Маленькая лгунья
6. Ночное такси
Качество: TVRip
Формат: AVI
Видео кодек: DivX
Аудио кодек: MP3
Видео: DivX 3 640x480, 25.00fps, 2 500 Kbps
Аудио: MPEG Audio Layer 3, 44100Hz stereo, 96kbps
Релиз от: Imagine





General
Complete name : E:женя белоусовЖеня БелоусовЕвгений Белоусов - Ночное такси.avi
Format : AVI
Format/Info : Audio Video Interleave
File size : 92.5 MiB
Duration : 4mn 57s
Overall bit rate : 2 609 Kbps
Writing application : Lavf50.6.0

Video
ID : 0
Format : MPEG-4 Visual
Codec ID : DIV3
Codec ID/Hint : DivX 3 Low
Duration : 4mn 57s
Bit rate : 2 500 Kbps
Width : 640 pixels
Height : 480 pixels
Display aspect ratio : 4:3
Frame rate : 25.000 fps
Color space : YUV
Chroma subsampling : 4:2:0
Bit depth : 8 bits
Compression mode : Lossy
Bits/(Pixel*Frame) : 0.326
Stream size : 88.6 MiB (96%)

Audio
ID : 1
Format : MPEG Audio
Format version : Version 1
Format profile : Layer 3
Mode : Joint stereo
Mode extension : MS Stereo
Codec ID : 55
Codec ID/Hint : MP3
Duration : 4mn 57s
Bit rate mode : Constant
Bit rate : 96.0 Kbps
Channel(s) : 2 channels
Sampling rate : 44.1 KHz
Compression mode : Lossy
Stream size : 3.40 MiB (4%)
Alignment : Aligned on interleaves
Interleave, duration : 26 ms (0.65 video frame)
Interleave, preload duration : 26 ms

pb.wtf



Скачать Женя Белоусов - Клипы через торрент https://pic1.kartinco.top/images/61/4elkr.jpg Скачать, смотреть онлайн Женя Белоусов - Клипы [1991 г., Рор, TVRip] бесплантно в хорошем качестве Описание: Евгений Белоусов - известная в музыкальном мире личность. Он пришел в свет 10 сентября далекого 1964 года в городе Курск. Дата ... 9.7 10 6
Info! Золотая раздача, скачанное не засчитывается.
Торрент: Зарегистрирован [2013-12-06 15:16] · скачан: 38 раз
Статус: √ проверено
Размер: 493 MB
Как cкачать? Как скачать Женя Белоусов - Клипы через торрент | UTorrent

28-11-2019 20:33  

Отключить всю рекламу на сайте

06-12-2013 20:14 Женя Белоусов - Клипы Скачать торрент  

Жалко, что здесь нету клипа "Такое короткое лето"... Клип существует, показывали во многих программах того времени...pb.wtf



03-04-2014 17:57 Женя Белоусов - Клипы Скачать торрент  

Cейчас подпил и решил посмотреть клипы, не пойму,что за режисер придумал такие клипы????Кругом одни окна,помойки и голуби....Песни у Жени хорошие,но сколько на этом наживалось бездарейpb.wtf



    Дорогой пользователь! Огромная просьба, поблагодарите релизера, оцените раздачу и оставьте свои комментарий, если Вы скачали Женя Белоусов - Клипы через торрент бесплатно!
    Комментировать посты могут только пользователи прошедшие не сложную регистрацию
    Показать сообщения:    

    Женя Белоусов - Клипы через торрент
    Скачать бесплатно Женя Белоусов - Клипы
    Женя Белоусов - Клипы скачать торрент
    Женя Белоусов - Клипы смотреть онлайн
    Cкачать фильм Женя Белоусов - Клипы бесплатно
    Женя Белоусов - Клипы скачать торрент в хорошем качестве
    Женя Белоусов - Клипы смотреть онлайн бесплатно в хорошем качестве


    Вы не можете начинать темы
    Вы не можете отвечать на сообщения
    Вы не можете редактировать свои сообщения
    Вы не можете удалять свои сообщения
    Вы не можете голосовать в опросах
    Вы не можете прикреплять файлы к сообщениям
    Вы можете скачивать файлы