Ссылка на приватное зеркало нашего сайта всего за 1$. Внимание количество ограничено!!!

2 сезон

iTunes

1 сезон

1

iTunes

iTunes

iTunes

1 сезон

RePack

30

ИГРА 18+

pack

ВАЖНО

!!Акция!!

Alien_RageХит недели

RePack

MK11
pack

Забери бонус

RePack

jed

!!Акция!!

Alien_Rage

RePack

fifa19

RePack

Assassins Creed: Odyssey

RePack

NEED FOR SPEED™ PAYBACK

4 сезон

9 сезон

Бесстыжие 9 сезон

Все сериалы

все сериалы на PB.wtf

RePack

FAR CRY 5
  

Майор (Юрий Быков) [2013 г., Драма, криминал, BDRip-AVC, Лицензия] pb.wtf

Майор через торрент pb.wtf

Размер: 1.46 GB | Добавлен: 6 лет 10 мес. назад | Торрент скачан:2361 раз
Скачать  

06-12-2013 15:36 Майор Скачать торрент  

Майор
Год выпуска: 2013
Страна: Россия / ТПО "Рок"
Жанр: Драма, криминал,
Продолжительность: 01:39:21
Тип релиза: Лицензия
Субтитры: Английские

Режиссер: Юрий Быков



В ролях: Денис Шведов, Ирина Низина, Илья Исаев, Юрий Быков, Дмитрий Куличков, Кирилл Полухин, Борис Невзоров

Описание: Что, если один день, один неверный шаг изменят всю твою жизнь, твою и твоих близких?.. В день, когда у жены начались роды, майор полиции Сергей Соболев мчался в роддом вне себя от счастья. На скользкой зимней дороге он насмерть сбил мальчика на глазах у несчастной матери. Превышение скорости, неосторожность, пешеходный переход – доказательства его вины очевидны, как очевидно и нежелание молодого отца отправляться за решетку. Соболев решился на сделку с совестью и воспользовался служебным положением, чтобы оправдать себя, тем самым запустив настоящий механизм смерти — череду смертей, остановить которую решился слишком поздно. События, развиваясь по цепочке, многих людей поставили перед чертой, за которой мораль, долг и совесть стоят жизни…

Качество: BDRip-AVC
Формат: MKV
Видео кодек: H.264
Аудио кодек: AC3
Видео: 1092x456 (2,40:1), 23,976 fps, 1656 Кbps, 0.139 bit/pixel
Аудио: 48 kHz, AC3 Dolby Digital, 3/2 (L,C,R,l,r) + LFE ch, 448.00 kbps

Релиз группы:
Автор рипа: potroks





Общее
Уникальный идентификатор : 177101989349156170728186565350476878722 (0x853C9A3A2692C8CC901C7F4E21321382)
Полное имя : Maior.2013.RUS.BDRip.x264.-HELLYWOOD.mkv
Формат : Matroska
Версия формата : Version 4 / Version 2
Размер файла : 1,46 Гбайт
Продолжительность : 1 ч. 39 м.
Общий поток : 2103 Кбит/сек
Название фильма : HELLYWOOD - rip by potroks
Дата кодирования : UTC 2013-12-06 14:52:01
Программа кодирования : mkvmerge v5.9.0 ('On The Loose') built on Dec 15 2012 16:39:58
Библиотека кодирования : libebml v1.3.0 + libmatroska v1.4.0

Видео
Идентификатор : 1
Формат : AVC
Формат/Информация : Advanced Video Codec
Профиль формата : High@L4.1
Параметр CABAC формата : Да
Параметр ReFrames формата : 12 кадров
Идентификатор кодека : V_MPEG4/ISO/AVC
Продолжительность : 1 ч. 39 м.
Битрейт : 1656 Кбит/сек
Ширина : 1092 пикселя
Высота : 456 пикселей
Соотношение сторон : 2,40:1
Режим частоты кадров : Постоянный
Частота кадров : 24,000 кадра/сек
Цветовое пространство : YUV
Субдискретизация насыщенности : 4:2:0
Битовая глубина : 8 бит
Тип развёртки : Прогрессивная
Бит/(Пиксели*Кадры) : 0.139
Размер потока : 1,12 Гбайт (77%)
Заголовок : Майор
Библиотека кодирования : x264 core 130 r2273 b3065e6
Настройки программы : cabac=1 / ref=12 / deblock=1:-2:-2 / analyse=0x3:0x133 / me=umh / subme=11 / psy=1 / psy_rd=1.06:0.00 / mixed_ref=1 / me_range=48 / chroma_me=1 / trellis=2 / 8x8dct=1 / cqm=0 / deadzone=21,11 / fast_pskip=0 / chroma_qp_offset=-2 / threads=9 / lookahead_threads=7 / sliced_threads=0 / nr=0 / decimate=0 / interlaced=0 / bluray_compat=0 / constrained_intra=0 / bframes=13 / b_pyramid=2 / b_adapt=2 / b_bias=0 / direct=3 / weightb=1 / open_gop=0 / weightp=2 / keyint=250 / keyint_min=23 / scenecut=40 / intra_refresh=0 / rc_lookahead=60 / rc=2pass / mbtree=0 / bitrate=1656 / ratetol=1.0 / qcomp=0.70 / qpmin=0 / qpmax=69 / qpstep=4 / cplxblur=20.0 / qblur=0.5 / vbv_maxrate=20000 / vbv_bufsize=20000 / nal_hrd=none / ip_ratio=1.35 / pb_ratio=1.25 / aq=1:0.80
Язык : Russian
Default : Да
Forced : Да

Аудио
Идентификатор : 2
Формат : AC-3
Формат/Информация : Audio Coding 3
Расширение режима : CM (complete main)
Параметр Endianness формата : Big
Идентификатор кодека : A_AC3
Продолжительность : 1 ч. 39 м.
Вид битрейта : Постоянный
Битрейт : 448 Кбит/сек
Каналы : 6 каналов
Расположение каналов : Front: L C R, Side: L R, LFE
Частота : 48,0 КГц
Битовая глубина : 16 бит
Метод сжатия : С потерями
Размер потока : 318 Мбайт (21%)
Заголовок : DD 5.1 @ 448 kbps
Язык : Russian
Default : Да
Forced : Нет

Текст
Идентификатор : 3
Формат : UTF-8
Идентификатор кодека : S_TEXT/UTF8
Идентификатор кодека/Информация : UTF-8 Plain Text
Язык : English
Default : Нет
Forced : Нет

Меню
00:00:00.000 : ru:Chapter 1
00:00:41.000 : ru:Chapter 2
00:08:35.583 : ru:Chapter 3
00:23:31.875 : ru:Chapter 4
00:29:56.750 : ru:Chapter 5
00:44:46.083 : ru:Chapter 6
01:02:40.875 : ru:Chapter 7
01:12:17.666 : ru:Chapter 8
01:17:41.958 : ru:Chapter 9

pb.wtf



Скачать Майор через торрент http://i59.fastpic.ru/big/2013/1206/d6/855cd6de2a7f3979547f425e22576fd6.png Скачать фильм Майор через торрент бесплантно в хорошем качестве Описание: Что, если один день, один неверный шаг изменят всю твою жизнь, твою и твоих близких?.. В день, когда у жены начались роды, майор ... 9.7 10 47
Info! Золотая раздача, скачанное не засчитывается.
Торрент: Зарегистрирован [2013-12-06 15:36] · скачан: 2 361 раз
Статус: √ проверено
Размер: 1.46 GB
Как cкачать? Как скачать Майор через торрент | qTorrent

% Раздел Тема Автор DL S | L
Наши сериалы [ 5.08 GB ] Мосгаз. Новое дело майора Черкасова. Катран / Серии: 1-8 из 8 [2020 SATRip] bober100 Скачать
82 | 81
Наши сериалы [ 5.95 GB ] Мосгаз. Новое дело майора Черкасова. Катран / Серии: 1-8 из 8 [2020 HDTVRip-AVC] bober100 Скачать
1 | 2
Наши сериалы [ 10.02 GB ] Мосгаз. Новое дело майора Черкасова. Катран / Серии: 1-8 из 8 [2020 HDTVRip 720p] bober100 Скачать
7 | 18
Наши сериалы [ 15.16 GB ] Мосгаз. Новое дело майора Черкасова. Катран / Серии: 1-8 из 8 [2020 HDTV 1080i] bober100 Скачать
22 | 36
Наши сериалы [ 4.89 GB ] Мосгаз. Новое дело майора Черкасова. Катран / Серии: 1-8 из 8 [2020 HDTVRip] bober100 Скачать
23 | 25
Наши сериалы [ 15.87 GB ] Майор и магия / Сезон: 1 / Серии: 1-32 из 32 [2016 WEB-DLRip-AVC] bober100 Скачать
1 | 0
Наши сериалы [ 28.79 GB ] Майор и магия / Сезон: 1 / Серии: 1-32 из 32 [2016 WEB-DL 1080p] bober100 Скачать
1 | 0

28-11-2019 20:33  

Отключить всю рекламу на сайте

06-01-2015 10:03 Майор Скачать торрент  

Сильное кино.Советую просмотреть,есть о чем задуматься...pb.wtf



16-02-2015 00:54 Майор Скачать торрент  

До последнего кадра думал что на путь истинный встал, а нет ( кстати литературное слово)! Советую к просмотру!pb.wtf



16-02-2015 08:56 Майор Скачать торрент  

gembird писал(а):

До последнего кадра думал что на путь истинный встал, а нет ( кстати литературное слово)! Советую к просмотру!

gembird это наша сегодняшняя жизнь...мы всё надеемся, ждём справедливости....скоро доведут, терпение лопнет...pb.wtf



    Дорогой пользователь! Огромная просьба, поблагодарите релизера, оцените раздачу и оставьте свои комментарий, если Вы скачали Майор через торрент бесплатно! Внесите свою лепту в развитие PiratBit!
    Комментировать посты могут только пользователи прошедшие не сложную регистрацию
    Показать сообщения:    

    Майор через торрент
    Скачать бесплатно Майор
    Майор скачать торрент
    Майор смотреть онлайн
    Cкачать фильм Майор бесплатно
    Майор скачать торрент в хорошем качестве
    Майор смотреть онлайн бесплатно в хорошем качестве


    Вы не можете начинать темы
    Вы не можете отвечать на сообщения
    Вы не можете редактировать свои сообщения
    Вы не можете удалять свои сообщения
    Вы не можете голосовать в опросах
    Вы не можете прикреплять файлы к сообщениям
    Вы можете скачивать файлы