Присоединяйтесь к нам в Telegram!, здесь всегда актуальный адрес сайта, оперативная поддержка и многое другое!!

>

5.9

iTunes

7.4

iTunes

9.4

1 сезон

1

7.4

2 сезон

7.2

iTunes

7.3

1 сезон

13

6.1

iTunes

8.3

GOG

30

ULTIMATE

pack

9.9

Лицензия

ВАЖНО

ИГРА 18+

pack

7.3

RePack

MK11

7.7

RePack

jed

7.8

RePack

fifa19

8.5

RePack

RDR2

RePack

NEED FOR SPEED™ PAYBACK

5 сезон

9 сезон

Бесстыжие 9 сезон

Все сериалы

все сериалы на PB.wtf

RePack

FAR CRY 5

Anonymous, доброе утро, мы катастрофически не успеваем собрать деньги на оплату серверов, помогите нам пожалуйста 5,10,15р., для нас важна любая помощь . В качестве благодарности мы отключим Вам всю рекламу на сайте (укажите свой ник в строку Ваше имя)!

×
  
Magnet ссылка

Клипы от Secret Service / Secret Service- Video Collection [2007 г., Disco, Pop, Europop, Synth pop, Pop rock, New Wave, TVRip] pb.wtf

Клипы от Secret Service через торрент pb.wtf

Размер: 1.37 GB | Добавлен: 7 лет 11 мес. назад | Торрент скачан:195 раз
Смотреть онлайн Клипы от Secret Service | Скачать    Ребята, помогите собрать деньги на оплату серверов!!!

06-12-2013 16:43 Клипы от Secret Service Скачать торрент  

Клипы от Secret Service
Год выпуска: 2007
Страна: Sweden
Жанр: Disco, Pop, Europop, Synth pop, Pop rock, New Wave
Продолжительность: 01:06:44
Перевод: Оригинал

В ролях: Secret Service

Описание: «Secret Service» — одна из наиболее известных музыкальных групп Швеции в жанре популярной музыки в 80-х годах. В 1979 году зажигается новая звезда на европейской сцене — Secret Service. Помимо Hakansson, Norell и Wahlberg, в состав группы вошли знакомые по предыдущим проектам Ola Hakansson’а музыканты — Tonny Lindberg, Leif Johansson и Leif Paulsen. Их дебютный сингл «Oh Susie» не прошёл незамеченным и завоевал высокие рейтинги как в Европе, так и за её пределами. В альбоме собраны: видеоклипы, концертные выступления, а так же промовидео "Secret Service".
01-Flash In The Night
02-Oh Susie
03-Ten O`Clock Postman
04-Ye Si Ca
05-Cry Softly(time is mourning)
06-Jo- Anne Jo-Anne
07-Flash In The Night(clip)
08-Fly Like The Eagle(Duet With Agnetta Feltskog)
09-Say Say
10-When The Night Closes In
11-How I Want You
12-Let Us Dance Just
13-Night City
14-Do You Remember
15-Feel You Near Me
RETRO FM
16-Flash In The Night
17-L.A. Goodbye
18-Cry Softly(time is mourning)
19-Oh Susie
20-Ten O`Clock Postman
Качество: TVRip
Формат: AVI
Видео кодек: XviD
Аудио кодек: MPEG Audio
Видео: Xvid 624x464, 25.00fps, 2 702 Kbps
Аудио: MPEG Audio 48000Hz stereo, 224kbps
Релиз от: lug 30





General
Complete name : E:SECRET SERVICE- Video Collection.avi
Format : AVI
Format/Info : Audio Video Interleave
File size : 1.37 GiB
Duration : 1h 6mn
Overall bit rate : 2 933 Kbps
Writing application : VirtualDubMod 1.5.4.1 (build 2178/release)
Writing library : VirtualDubMod build 2178/release

Video
ID : 0
Format : MPEG-4 Visual
Format profile : Advanced Simple@L5
Format settings, BVOP : 1
Format settings, QPel : No
Format settings, GMC : No warppoints
Format settings, Matrix : Custom
Codec ID : XVID
Codec ID/Hint : XviD
Duration : 1h 6mn
Bit rate : 2 702 Kbps
Width : 624 pixels
Height : 464 pixels
Display aspect ratio : 4:3
Frame rate : 25.000 fps
Color space : YUV
Chroma subsampling : 4:2:0
Bit depth : 8 bits
Scan type : Progressive
Compression mode : Lossy
Bits/(Pixel*Frame) : 0.373
Stream size : 1.26 GiB (92%)
Writing library : XviD 1.2.1 (UTC 2008-12-04)

Audio
ID : 1
Format : MPEG Audio
Format version : Version 1
Format profile : Layer 2
Codec ID : 50
Duration : 1h 6mn
Bit rate mode : Constant
Bit rate : 224 Kbps
Channel(s) : 2 channels
Sampling rate : 48.0 KHz
Compression mode : Lossy
Stream size : 107 MiB (8%)
Alignment : Aligned on interleaves
Interleave, duration : 80 ms (2.00 video frames)
Interleave, preload duration : 504 ms

pb.wtf



Скачать Клипы от Secret Service через торрент https://pic1.kartinco.top/images/61/g39cw.jpg Скачать, смотреть онлайн Клипы от Secret Service бесплантно в хорошем качестве Описание: «Secret Service» — одна из наиболее известных музыкальных групп Швеции в жанре популярной музыки в 80-х годах. В 1979 году ... 9.8 10 11
Info! Золотая раздача, скачанное не засчитывается.
Торрент: Зарегистрирован [2013-12-06 16:43] · скачан: 195 раз
Статус: √ проверено
Размер: 1.37 GB
Как cкачать? Как скачать Клипы от Secret Service через торрент | UTorrent

28-11-2019 20:33  

Отключить всю рекламу на сайте

    Дорогой пользователь! Огромная просьба, поблагодарите релизера, оцените раздачу и оставьте свои комментарий, если Вы скачали Клипы от Secret Service через торрент бесплатно!
    Комментировать посты могут только пользователи прошедшие не сложную регистрацию
    Показать сообщения:    

    Клипы от Secret Service через торрент
    Скачать бесплатно Клипы от Secret Service
    Клипы от Secret Service скачать торрент
    Клипы от Secret Service смотреть онлайн
    Cкачать фильм Клипы от Secret Service бесплатно
    Клипы от Secret Service скачать торрент в хорошем качестве
    Клипы от Secret Service смотреть онлайн бесплатно в хорошем качестве


    Вы не можете начинать темы
    Вы не можете отвечать на сообщения
    Вы не можете редактировать свои сообщения
    Вы не можете удалять свои сообщения
    Вы не можете голосовать в опросах
    Вы не можете прикреплять файлы к сообщениям
    Вы можете скачивать файлы