новый адрес
Ссылка на приватное зеркало всего за 1$. Внимание количество ограничено!!!

iTunes

1+1

iTunes

мы

WEB-DL

1

iTunes

Чернобыль

iTunes

Ральф против интернета

Лицензия

ПШазам

Лицензия

Оно 2

Лицензия

30
pack

Вам бонус

ВАЖНО

!!Акция!!

Alien_RageХит недели

RePack

Resident Evil 21

ИГРА 18+

pack

RePack

jed

!!Акция!!

Alien_Rage

RePack

fifa19

RePack

Assassins Creed: Odyssey

RePack

NEED FOR SPEED™ PAYBACK

3 сезон

9 сезон

Бесстыжие 9 сезон

Все сериалы

все сериалы на PB.wtf

RePack

FAR CRY 5
Ребята, катастрофически не хватает 1900р. для оплаты серверов за Октябрь (всвязи с блокировками трафик упал в 3 раза), 1-2р., выручайте.
  

Невидимый мир / Mundo Invisível (Тео Ангелопулос, Джан Витторио Бальди, Марко Бекис) [2012 г., драма, WEB-DLRip, Профессиональный многоголосый] pb.wtf

Невидимый мир через торрент pb.wtf

Размер: 1.37 GB | Добавлен: 6 лет назад | Торрент скачан:132 раза
Скачать  

06-12-2013 17:15 Невидимый мир Скачать торрент  

Невидимый мир / Mundo Invisível
Год выпуска: 2012
Страна: Бразилия / Gullane Filmes, Mostra Internacional de Cinema de São Paulo, Querô Filmes
Жанр: драма,
Продолжительность: 01:00:29
Перевод: Профессиональный многоголосый

Режиссер: Тео Ангелопулос, Джан Витторио Бальди, Марко Бекис



В ролях: Юпитер Эппл, Джан Витторио Бальди, Соня Брага, Леон Какофф, Моня Коэн, Талма де Фрейтас, Жоан-Луи Фонт, Денис Фрага, Лаура Нейва, Томас Оливейра,

Описание: Коллекция киноновелл о тайнах времени и пространства от выдающихся режиссеров современности! Существует ли в реальности то, что мы видим? Видим ли мы одно и то же, глядя в одну сторону? Возможно ли увидеть иную, невидимую, параллельную реальность? На эти и многие другие вопросы, связанные с концепцией невидимости, пытаются найти ответы самые яркие режиссеры современности.

Качество: WEB-DLRip
Формат: AVI
Видео кодек: XviD
Аудио кодек: AC3
Видео: 720x400 (1.80:1), 25 fps, XviD build 50 ~3036 kbps avg, 0.42 bit/pixel
Аудио: 48 kHz, AC3 Dolby Digital, 2/0 (L,R) ch, ~192 kbps

General
Complete name : I:киноMundo Invisivel.2012.WEB-DLRip.avi
Format : AVI
Format/Info : Audio Video Interleave
File size : 1.37 GiB
Duration : 1h 0mn
Overall bit rate : 3 239 Kbps
Movie name : Mundo Invisivel.2012.WEB-DLRip.avi
Director : by coc900
Writing application : VirtualDubMod 1.5.10.3 | www.virtualdub-fr.org || (build 2550/release)

Video
ID : 0
Format : MPEG-4 Visual
Format profile : Advanced Simple@L5
Format settings, BVOP : 3
Format settings, QPel : Yes
Format settings, GMC : 3 warppoints
Format settings, Matrix : Default (H.263)
Codec ID : XVID
Codec ID/Hint : XviD
Duration : 1h 0mn
Bit rate : 3 037 Kbps
Width : 720 pixels
Height : 400 pixels
Display aspect ratio : 16:9
Frame rate : 25.000 fps
Color space : YUV
Chroma subsampling : 4:2:0
Bit depth : 8 bits
Scan type : Progressive
Compression mode : Lossy
Bits/(Pixel*Frame) : 0.422
Stream size : 1.28 GiB (94%)
Writing library : XviD 1.2.1 (UTC 2008-12-04)

Audio
ID : 1
Format : AC-3
Format/Info : Audio Coding 3
Mode extension : CM (complete main)
Format settings, Endianness : Big
Codec ID : 2000
Duration : 1h 0mn
Bit rate mode : Constant
Bit rate : 192 Kbps
Channel(s) : 2 channels
Channel positions : Front: L R
Sampling rate : 48.0 KHz
Bit depth : 16 bits
Compression mode : Lossy
Stream size : 83.1 MiB (6%)
Alignment : Split accross interleaves
Interleave, duration : 40 ms (1.00 video frame)
Interleave, preload duration : 500 ms
скриншот   скриншот   скриншот   скриншот   скриншот  
pb.wtf



Скачать Невидимый мир через торрент http://pic.kartinco.top/images/6/9u7on.jpg Скачать фильм Невидимый мир через торрент бесплантно в хорошем качестве Описание: Коллекция киноновелл о тайнах времени и пространства от выдающихся режиссеров современности! Существует ли в реальности то, что ... 9.7 10 9
Info! Золотая раздача, скачанное не засчитывается.
Торрент: Зарегистрирован [2013-12-06 17:15] · скачан: 132 раз
Статус: √ проверено
Размер: 1.37 GB
Как cкачать? Как скачать Невидимый мир через торрент | qTorrent



Последний раз редактировалось: coc900 (2013-12-06 17:30), всего редактировалось 1 раз

28-11-2019 20:33  

Отключить всю рекламу на сайте

06-12-2013 17:20 Невидимый мир Скачать торрент  

Это одно имя режиссёра? Или это несколько людей?pb.wtf



06-12-2013 17:25 Невидимый мир Скачать торрент  

Kesady писал(а):

Это одно имя режиссёра? Или это несколько людей?

В школе видимо было не легко ему.pb.wtf



06-12-2013 17:51 Невидимый мир Скачать торрент  

Kesady писал(а):

Это одно имя режиссёра? Или это несколько людей?

Кинопоиск говорит что это разные люди :)pb.wtf



    Дорогой пользователь! Огромная просьба, поблагодарите релизера, оцените раздачу и оставьте свои комментарий, если Вы скачали Невидимый мир через торрент бесплатно! Внесите свою лепту в развитие PiratBit!
    Комментировать посты могут только пользователи прошедшие не сложную регистрацию
    Показать сообщения:    

    Невидимый мир через торрент
    Скачать бесплатно Невидимый мир
    Невидимый мир скачать торрент
    Невидимый мир смотреть онлайн
    Cкачать фильм Невидимый мир бесплатно
    Невидимый мир скачать торрент в хорошем качестве
    Невидимый мир смотреть онлайн бесплатно в хорошем качестве


    Вы не можете начинать темы
    Вы не можете отвечать на сообщения
    Вы не можете редактировать свои сообщения
    Вы не можете удалять свои сообщения
    Вы не можете голосовать в опросах
    Вы не можете прикреплять файлы к сообщениям
    Вы можете скачивать файлы