2 сезон

iTunes

MVO

1

2 сезон

iTunes

iTunes

1 сезон

RePack

30

Новинка

ВАЖНО

ИГРА 18+

pack

RePack

MK11
pack

Легкие деньги

RePack

jed

RePack

fifa19

RePack

RDR2

RePack

NEED FOR SPEED™ PAYBACK

4 сезон

9 сезон

Бесстыжие 9 сезон

Все сериалы

все сериалы на PB.wtf

RePack

FAR CRY 5

Anonymous, добрый вечер, мы не успеваем собрать деньги на оплату серверов за декабрь и январь, помогите нам пожалуйста в это трудное время. В качестве благодарности мы отключим Вам всю рекламу на сайте (укажите свой ник в строку Ваше имя)!

×
  
Magnet ссылка

Видеоклипы от Alphaville / Alphaville - The Video Collection [1984-2005 г., Pop, New wave, New Romantic, DVDRip] pb.wtf

Видеоклипы от Alphaville через торрент pb.wtf

Размер: 1.37 GB | Добавлен: 7 лет 1 мес. назад | Торрент скачан:129 раз
Скачать  

07-12-2013 04:51 Видеоклипы от Alphaville Скачать торрент  

Видеоклипы от Alphaville
Год выпуска: 1984-2005
Страна: Германия
Жанр: Pop, New wave, New Romantic
Продолжительность: 02:16:42
Перевод: Оригинал

В ролях: Alphaville

Описание: В начале 1984 г. Германия, за ней другие европейские страны, а потом и США стали свидетелями восхождения новой яркой звезды на музыкальном небосклоне - Alphaville взлетели на вершины чартов со своим синглом "Big In Japan"; аналогичная судьба постигла и два их последующих сингла - "Forever Young" и "Sounds Like a Melody". На волне успеха музыканты выпустили свой первый альбом "Forever Young" в сентябре 1984 г. Незамысловатые, но чарующие слух синтезаторные мелодии в сочетании с великолепным голосом Голда сделали свое дело - альбом разошелся по всему миру тиражом более 1,5 млн экземпляров. Мечта сбылась, но талантливые юноши и не думали почивать на лаврах - впереди их ожидал долгий путь...
Big in Japan (Original Videoclip)
ForeverYoung (Original Videoclip)
Dance With Me (Moscow 2005)
ForeverYoung (Moscow 2005)
Big in Japan (Moscow 2005)
Big in Japan (TPS 1984)
Forever Young (TPS 1984)
Forever Young (NDR 1986)
Universal Daddy (Original Videoclip)
Dance With Me (Original Videoclip)
Dance with me (FB 86)
Fallen Angel (mult)
For A Million
Romeos
One Step Behind You (Original Videoclip)
Soul Messiah (Original Videoclip)
Ariana
A Victory Of Love
The Jet Set (85 Live)
Sound like a Melody (Original)
Red Rose (original)
Big in Japan (Swedish TV 1984)
Forever Young (Swedish TV 1984)
Forever Young (Goldene Europa 1984)
Universal Daddy (Ölandssommar 86)
Afternoons in Utopia (Ölandssommar 86)
Sensations (Ölandssommar 86)
Качество: DVDRip
Формат: AVI
Видео кодек: XviD
Аудио кодек: AC3
Видео: Xvid 560x416, 25.00fps, 1 234 Kbps
Аудио: Dolby AC3, 48000Hz stereo, 192kbps
Релиз от: Firebit-ретро





General
Complete name : G:Alphaville - The Video Collection _ilu_ [Firebit-ретро].avi
Format : AVI
Format/Info : Audio Video Interleave
File size : 1.37 GiB
Duration : 2h 16mn
Overall bit rate : 1 433 Kbps
Writing application : VirtualDubMod 1.5.4.1 (build 2178/release)
Writing library : VirtualDubMod build 2178/release

Video
ID : 0
Format : MPEG-4 Visual
Format profile : Advanced Simple@L5
Format settings, BVOP : 1
Format settings, QPel : No
Format settings, GMC : No warppoints
Format settings, Matrix : Custom
Codec ID : XVID
Codec ID/Hint : XviD
Duration : 2h 16mn
Bit rate : 1 234 Kbps
Width : 560 pixels
Height : 416 pixels
Display aspect ratio : 4:3
Frame rate : 25.000 fps
Color space : YUV
Chroma subsampling : 4:2:0
Bit depth : 8 bits
Scan type : Progressive
Compression mode : Lossy
Bits/(Pixel*Frame) : 0.212
Stream size : 1.18 GiB (86%)
Writing library : XviD 64

Audio
ID : 1
Format : AC-3
Format/Info : Audio Coding 3
Mode extension : CM (complete main)
Codec ID : 2000
Duration : 2h 16mn
Bit rate mode : Constant
Bit rate : 192 Kbps
Channel(s) : 2 channels
Channel positions : Front: L R
Sampling rate : 48.0 KHz
Bit depth : 16 bits
Compression mode : Lossy
Stream size : 188 MiB (13%)
Alignment : Split accross interleaves
Interleave, duration : 96 ms (2.40 video frames)
Interleave, preload duration : 96 ms
Language : English

pb.wtf



Скачать Видеоклипы от Alphaville через торрент http://pic.kartinco.top/images/6/2cyvm.jpg Скачать фильм Видеоклипы от Alphaville через торрент бесплантно в хорошем качестве Описание: В начале 1984 г. Германия, за ней другие европейские страны, а потом и США стали свидетелями восхождения новой яркой звезды на ... 10 10 11
Info! Золотая раздача, скачанное не засчитывается.
Торрент: Зарегистрирован [2013-12-07 04:51] · скачан: 129 раз
Статус: √ проверено
Размер: 1.37 GB
Как cкачать? Как скачать Видеоклипы от Alphaville через торрент | UTorrent

28-11-2019 20:33  

Отключить всю рекламу на сайте

07-12-2013 07:53 Видеоклипы от Alphaville Скачать торрент  

lug30
От всей души !
Вспомним... pb.wtf



07-12-2013 08:44 Видеоклипы от Alphaville Скачать торрент  

igorutka писал(а):

lug30
От всей души !
Вспомним...

Соледарен!!!!pb.wtf



    Дорогой пользователь! Огромная просьба, поблагодарите релизера, оцените раздачу и оставьте свои комментарий, если Вы скачали Видеоклипы от Alphaville через торрент бесплатно! Внесите свою лепту в развитие PiratBit!
    Комментировать посты могут только пользователи прошедшие не сложную регистрацию
    Показать сообщения:    

    Видеоклипы от Alphaville через торрент
    Скачать бесплатно Видеоклипы от Alphaville
    Видеоклипы от Alphaville скачать торрент
    Видеоклипы от Alphaville смотреть онлайн
    Cкачать фильм Видеоклипы от Alphaville бесплатно
    Видеоклипы от Alphaville скачать торрент в хорошем качестве
    Видеоклипы от Alphaville смотреть онлайн бесплатно в хорошем качестве


    Вы не можете начинать темы
    Вы не можете отвечать на сообщения
    Вы не можете редактировать свои сообщения
    Вы не можете удалять свои сообщения
    Вы не можете голосовать в опросах
    Вы не можете прикреплять файлы к сообщениям
    Вы можете скачивать файлы