2 сезон

iTunes

MVO

1

2 сезон

iTunes

iTunes

1 сезон

RePack

30

Ultimate

ВАЖНО

ИГРА 18+

pack

RePack

MK11
pack

Легкие деньги

RePack

jed

RePack

fifa19

RePack

RDR2

RePack

NEED FOR SPEED™ PAYBACK

4 сезон

9 сезон

Бесстыжие 9 сезон

Все сериалы

все сериалы на PB.wtf

RePack

FAR CRY 5

Anonymous, доброй ночи, мы не успеваем собрать деньги на оплату серверов за декабрь и январь, помогите нам пожалуйста в это трудное время. В качестве благодарности мы отключим Вам всю рекламу на сайте (укажите свой ник в строку Ваше имя)!

×
  
Magnet ссылка

Клипы от Take That / Take That - Never Forget. The Ultimate Collection [2006 г., Pop, Eurodance, Dance, Disco, DVDRip] pb.wtf

Клипы от Take That через торрент pb.wtf

Размер: 1.37 GB | Добавлен: 7 лет 1 мес. назад | Торрент скачан:37 раз
Скачать  

07-12-2013 07:08 Клипы от Take That Скачать торрент  

Клипы от Take That
Год выпуска: 2006
Страна: США BMG
Жанр: Pop, Eurodance, Dance, Disco
Продолжительность: 01:06:57
Перевод: Оригинал

В ролях: Робби Уильямс, Гэри Барлоу, Марк Оуэн, Джейсон Орандж, Ховард Дональд

Описание: Команда была сформирована в 1990 году в Манчестере и первоначально выступала в клубах и школах. За весьма короткий промежуток (1993-96) ребята восемь раз сумели возглавить национальный хит-парад Великобритании, а их сингл «Back For Good» (1995) попал в число лучших пяти песен американского хит-парада Billboard Hot 100. Вскоре после прорыва на американский рынок об уходе из группы объявил Робби Уильямс, позже ставший очень популярным сольным певцом, продавшим свыше 40 миллионов своих дисков по всему миру. В феврале 1996 года оставшиеся четыре участника выпустили прощальный хит — кавер-версию песни Bee Gees «How Deep Is Your Love» — и объявили о роспуске команды.
01. Never Forget
02. Back For Good
03. How Deep Is Your Love
04. Pray
05. Relight My Fire
06. Everything Changes
07. Babe
08. Sure
09. It Only Takes A Minute
10. A Million Love Songs
11. Could It Be Magic
12. Why Can’t I Wake Up With You?
13. Love Ain’t Here Anymore
14. I Found Heaven
15. Promises
16. Once You’ve Tasted Love
Качество: DVDRip
Формат: AVI
Видео кодек: XviD
Аудио кодек: MP3
Видео: Xvid 624x464, 25.00fps, 2 603 Kbps
Аудио#1: MPEG Audio Layer 3, 48000Hz stereo, 179kbps
Аудио#2: MPEG Audio Layer 3, 48000Hz stereo, 119kbps





General
Complete name : E:20 02 2012Take.That-Never.Forget.The.Ultimate.Collection.2006.avi
Format : AVI
Format/Info : Audio Video Interleave
File size : 1.37 GiB
Duration : 1h 6mn
Overall bit rate mode : Variable
Overall bit rate : 2 923 Kbps
Writing application : VirtualDubMod 1.5.4.1 (build 2178/release)
Writing library : VirtualDubMod build 2178/release

Video
ID : 0
Format : MPEG-4 Visual
Format profile : Advanced Simple@L5
Format settings, BVOP : 1
Format settings, QPel : No
Format settings, GMC : No warppoints
Format settings, Matrix : Custom
Codec ID : XVID
Codec ID/Hint : XviD
Duration : 1h 6mn
Bit rate : 2 603 Kbps
Width : 624 pixels
Height : 464 pixels
Display aspect ratio : 4:3
Frame rate : 25.000 fps
Color space : YUV
Chroma subsampling : 4:2:0
Bit depth : 8 bits
Scan type : Progressive
Compression mode : Lossy
Bits/(Pixel*Frame) : 0.360
Stream size : 1.22 GiB (89%)
Writing library : XviD 1.2.1 (UTC 2008-12-04)

Audio #1
ID : 1
Format : MPEG Audio
Format version : Version 1
Format profile : Layer 3
Mode : Joint stereo
Mode extension : MS Stereo
Codec ID : 55
Codec ID/Hint : MP3
Duration : 1h 6mn
Bit rate mode : Variable
Bit rate : 179 Kbps
Nominal bit rate : 192 Kbps
Channel(s) : 2 channels
Sampling rate : 48.0 KHz
Compression mode : Lossy
Stream size : 85.8 MiB (6%)
Alignment : Aligned on interleaves
Interleave, duration : 24 ms (0.60 video frame)
Interleave, preload duration : 102 ms
Writing library : LAME3.98r
Encoding settings : -m j -V 4 -q 2 -lowpass 18.6 --abr 192
Language : English

Audio #2
ID : 2
Format : MPEG Audio
Format version : Version 1
Format profile : Layer 3
Mode : Joint stereo
Mode extension : MS Stereo
Codec ID : 55
Codec ID/Hint : MP3
Duration : 1h 6mn
Bit rate mode : Variable
Bit rate : 120 Kbps
Nominal bit rate : 128 Kbps
Channel(s) : 2 channels
Sampling rate : 48.0 KHz
Compression mode : Lossy
Stream size : 57.4 MiB (4%)
Alignment : Aligned on interleaves
Interleave, duration : 24 ms (0.60 video frame)
Interleave, preload duration : 177 ms
Writing library : LAME3.98r
Encoding settings : -m j -V 4 -q 2 -lowpass 17 --abr 128
Language : English

pb.wtf



Скачать Клипы от Take That через торрент http://pic.kartinco.top/images/6/hktdu.jpg Скачать фильм Клипы от Take That через торрент бесплантно в хорошем качестве Описание: Команда была сформирована в 1990 году в Манчестере и первоначально выступала в клубах и школах. За весьма короткий промежуток ... 10 10 3
Info! Золотая раздача, скачанное не засчитывается.
Торрент: Зарегистрирован [2013-12-07 07:08] · скачан: 37 раз
Статус: √ проверено
Размер: 1.37 GB
Как cкачать? Как скачать Клипы от Take That через торрент | UTorrent

28-11-2019 20:33  

Отключить всю рекламу на сайте

    Дорогой пользователь! Огромная просьба, поблагодарите релизера, оцените раздачу и оставьте свои комментарий, если Вы скачали Клипы от Take That через торрент бесплатно! Внесите свою лепту в развитие PiratBit!
    Комментировать посты могут только пользователи прошедшие не сложную регистрацию
    Показать сообщения:    

    Клипы от Take That через торрент
    Скачать бесплатно Клипы от Take That
    Клипы от Take That скачать торрент
    Клипы от Take That смотреть онлайн
    Cкачать фильм Клипы от Take That бесплатно
    Клипы от Take That скачать торрент в хорошем качестве
    Клипы от Take That смотреть онлайн бесплатно в хорошем качестве


    Вы не можете начинать темы
    Вы не можете отвечать на сообщения
    Вы не можете редактировать свои сообщения
    Вы не можете удалять свои сообщения
    Вы не можете голосовать в опросах
    Вы не можете прикреплять файлы к сообщениям
    Вы можете скачивать файлы