Ссылка на приватное зеркало всего за 1$. Внимание количество ограничено!!!

OK

1+1

iTunes

мы

OK

1

WEB-DLRip

Джокер

Пифагор

Ведьмак / The Witcher сериал

Лицензия

ПШазам

ОК

Оно 2

iTunes

30
pack

Вам бонус

ВАЖНО

!!Акция!!

Alien_RageХит недели

RePack

Resident Evil 21

ИГРА 18+

pack

RePack

jed

RePack

fifa19

RePack

Assassins Creed: Odyssey

RePack

NEED FOR SPEED™ PAYBACK

4 сезон

9 сезон

Бесстыжие 9 сезон

Все сериалы

все сериалы на PB.wtf

RePack

FAR CRY 5
  

Ледник / Frost (Рейнир Лингдаль / Reynir Lyngdal) [2012 г., ужасы, фантастика, триллер, DVDRip, Профессиональный (одноголосый) ] pb.wtf

Ледник через торрент pb.wtf

Размер: 1.46 GB | Добавлен: 6 лет 1 мес. назад | Торрент скачан:313 раз
Скачать  

31-08-2013 02:58 Ледник Скачать торрент  

Ледник / Frost
Год выпуска: 2012
Страна: Исландия, Финляндия
Жанр: ужасы, фантастика, триллер,
Продолжительность: 01:18:46
Перевод: Профессиональный (одноголосый)
Субтитры: Нет

Режиссер: Рейнир Лингдаль / Reynir Lyngdal

Премьера в мире: 7 сентября 2012

В ролях: Анна Гунндис Гюдмундсдоттир, Хельги Бьёрнссон, Эйнар Дагбьяртссон, Валур Фрейр Эйнарссон, Элма Лиза Гуннарсдотир, Бьяртур Гудмундссон, Халлур Инголфссон, Хилмир Дженссон, Хилмар Йонсон, Хальфдан Педерсен,

Описание: Молодая пара ученых отправляется на скованную льдами исследовательскую базу. Весь ее персонал бесследно исчез. Они - единственные живые души на сотни километров. Но чем ближе ученые оказываются к чудовищной разгадке, тем отчетливее понимают, за каждым их шагом наблюдает кто-то третий - таинственное нечто. И они - его последние гости.

Качество: DVDRip
Формат: AVI
Видео кодек: XviD
Аудио кодек: AC3
Видео: MPEG-4, 2203 Кбит/сек, 720*320 (2,25:1), в 25,000 кадров/сек
Аудио: AC-3, 448 Кбит/сек, 48,0 КГц, 16 бит, 6 каналов



Общее
Кол-во : 284
Кол-во потоков такого типа : 1
Тип потока : General
Тип потока : Общее
Идентификатор типа потока : 0
Inform : AVI: 1,46 Гбайт, 1 ч. 18 м.
Кол-во видеопотоков : 1
Кол-во аудиопотоков : 1
Video_Format_List : MPEG-4 Visual
Video_Format_WithHint_List : MPEG-4 Visual (XviD)
Видеокодеки : XviD
Audio_Format_List : AC-3
Audio_Format_WithHint_List : AC-3
Аудиокодеки : AC3
Полное имя : H:ТОРРЕНТЫЛедник.avi
Имя папки : H:ТОРРЕНТЫ
Имя файла : Ледник
Расширение : avi
Формат : AVI
Формат : AVI
Формат/Информация : Audio Video Interleave
Формат/Используется в : avi
Коммерческое название : AVI
Интернет-тип носителя : video/vnd.avi
Чередующаяся : Yes
Кодек : AVI
Кодек : AVI
Кодек/Информация : Audio Video Interleave
Кодек/Используется в : avi
Размер файла : 1572061184
Размер файла : 1,46 Гбайт
Размер файла : 1 Гбайт
Размер файла : 1,5 Гбайт
Размер файла : 1,46 Гбайт
Размер файла : 1,464 Гбайт
Продолжительность : 4726240
Продолжительность : 1 ч. 18 м.
Продолжительность : 1 ч. 18 м. 46 с. 240 мс.
Продолжительность : 1 ч. 18 м.
Продолжительность : 01:18:46.240
Общий поток : 2660993
Общий поток : 2661 Кбит/сек
Размер потока : 5741213
Размер потока : 5,48 Мбайт (0%)
Размер потока : 5 Мбайт
Размер потока : 5,5 Мбайт
Размер потока : 5,48 Мбайт
Размер потока : 5,475 Мбайт
Размер потока : 5,48 Мбайт (0%)
Пропорции потока : 0.00365
Дата файла : UTC 2013-08-31 00:44:36.224
Дата файла (местная) : 2013-08-31 07:44:36.224
Дата изменения файла : UTC 2013-08-31 01:12:05.248
Дата изменения файла (местная) : 2013-08-31 08:12:05.248
Программа кодирования : VirtualDubMod 1.5.10.3 | www.virtualdub-fr.org || (build 2550/release)
Библиотека кодирования : VirtualDubMod build 2550/release
Библиотека кодирования : VirtualDubMod build 2550/release

Видео
Кол-во : 263
Кол-во потоков такого типа : 1
Тип потока : Video
Тип потока : Видео
Идентификатор типа потока : 0
StreamOrder : 0
Inform : 2203 Кбит/сек, 720*320 (2,25:1), в 25,000 кадров/сек, MPEG-4 Visual (XviD) (Advanced Simple@L5) (BVOP1 / Custom Matrix)
Идентификатор : 0
Идентификатор : 0
Формат : MPEG-4 Visual
Коммерческое название : MPEG-4 Visual
Профиль формата : Advanced Simple@L5
Настройки формата : BVOP1 / Custom Matrix
Параметр BVOP формата : 1
Параметр BVOP формата : 1
Параметр QPel формата : No
Параметр QPel формата : Нет
Параметр GMC формата : 0
Параметр GMC формата : Без точки перехода
Параметр матрицы формата : Custom
Параметр матрицы формата : Выборочная
Format_Settings_Matrix_Data : 080A0A0A0A0A0A0A0A0A0B0A0B0A0B0B0B0B0B0B0B0D0C0D0D0D0C0D0F0E0E0F0F0E0E0F10101113111010121316161312171A1C1A171D22221D292C29373748 / 0F0F0F0F0F0F0F0F0F0F100F100F101110111110111312131313121316141416161414161717191C1917171B1D20201D1B21262926212B32322B3C423C51516A
Интернет-тип носителя : video/MP4V-ES
Идентификатор кодека : XVID
Идентификатор кодека/Подсказка : XviD
Идентификатор кодека/Ссылка : http://mediaarea.net/XVID
Кодек : XVID
Кодек : XviD
Кодек/Семейство : MPEG-4V
Кодек/Информация : XviD project
Кодек/Ссылка : http://www.xvid.org/Downloads.15.0.html
Кодек/CC : XVID
Профиль кодека : Advanced Simple@L5
Настройки кодека : BVOP / Custom Matrix
Параметр пакетного потока данных кодека : No
Параметр BVOP кодека : Yes
Параметр QPel кодека : No
Параметр GMC кодека : 0
Параметр GMC кодека : Без точки перехода
Параметр матрицы кодека : Custom
Продолжительность : 4726240
Продолжительность : 1 ч. 18 м.
Продолжительность : 1 ч. 18 м. 46 с. 240 мс.
Продолжительность : 1 ч. 18 м.
Продолжительность : 01:18:46.240
Битрейт : 2203275
Битрейт : 2203 Кбит/сек
Ширина : 720
Ширина : 720 пикселей
Высота : 320
Высота : 320 пикселей
Пропорции пикселя : 1.000
Соотношение сторон : 2.250
Соотношение сторон : 2,25:1
Частота кадров : 25.000
Частота кадров : 25,000 кадров/сек
Счётчик кадров : 118156
Разрешение : 8
Разрешение : 8 бит
Колориметрия : 4:2:0
Цветовое пространство : YUV
Субдискретизация насыщенности : 4:2:0
Битовая глубина : 8
Битовая глубина : 8 бит
Тип развёртки : Progressive
Тип развёртки : Прогрессивная
Переплетение : PPF
Переплетение : Прогрессивная
Метод сжатия : Lossy
Метод сжатия : С потерями
Бит/(Пиксели*Кадры) : 0.383
Задержка : 0
Задержка : 00:00:00.000
Размер потока : 1301650531
Размер потока : 1,21 Гбайт (83%)
Размер потока : 1 Гбайт
Размер потока : 1,2 Гбайт
Размер потока : 1,21 Гбайт
Размер потока : 1,212 Гбайт
Размер потока : 1,21 Гбайт (83%)
Пропорции потока : 0.82799
Библиотека кодирования : XviD0065
Библиотека кодирования : XviD 65
Библиотека кодирования/Имя : XviD
Библиотека кодирования/Version : 65

Аудио
Кол-во : 234
Кол-во потоков такого типа : 1
Тип потока : Audio
Тип потока : Аудио
Идентификатор типа потока : 0
StreamOrder : 1
Inform : 448 Кбит/сек, 48,0 КГц, 16 бит, 6 каналов, AC-3
Идентификатор : 1
Идентификатор : 1
Формат : AC-3
Формат/Информация : Audio Coding 3
Коммерческое название : AC-3
Расширение режима : CM (complete main)
Параметр Endianness формата : Big
Идентификатор кодека : 2000
Кодек : AC3
Кодек : AC3
Кодек/Семейство : AC3
Кодек/Информация : Dolby AC3
Кодек/CC : 2000
Продолжительность : 4726240
Продолжительность : 1 ч. 18 м.
Продолжительность : 1 ч. 18 м. 46 с. 240 мс.
Продолжительность : 1 ч. 18 м.
Продолжительность : 01:18:46.240
Вид битрейта : CBR
Вид битрейта : Постоянный
Битрейт : 448000
Битрейт : 448 Кбит/сек
Каналы : 6
Каналы : 6 каналов
Расположение каналов : Front: L C R, Side: L R, LFE
Расположение каналов : 3/2/0.1
Частота : 48000
Частота : 48,0 КГц
Количество образцов : 226859520
Разрешение : 16
Разрешение : 16 бит
Битовая глубина : 16
Битовая глубина : 16 бит
Метод сжатия : Lossy
Метод сжатия : С потерями
Задержка : 0
Задержка : 00:00:00.000
Задержка в оригинале : Stream
Задержка в оригинале : 'Сырой' поток
Задержка видео : 0
Задержка видео : 0
Размер потока : 264669440
Размер потока : 252 Мбайт (17%)
Размер потока : 252 Мбайт
Размер потока : 252 Мбайт
Размер потока : 252 Мбайт
Размер потока : 252,4 Мбайт
Размер потока : 252 Мбайт (17%)
Пропорции потока : 0.16836
Выравнивание : Split
Выравнивание : Разделение по промежуткам
Продолжительность промежутка : 1.00
Продолжительность промежутка : 40
Продолжительность промежутка : 40 мс. (1,00 видеокадр)
Время предзагрузки промежутка : 500
Время предзагрузки промежутка : 500 мс.
bsid : 8
dialnorm : -31
dialnorm/String : -31 dB
acmod : 7
lfeon : 1
dialnorm_Average : -31
dialnorm_Average/String : -31 dB
dialnorm_Minimum : -31
dialnorm_Minimum/String : -31 dB
dialnorm_Maximum : -31
dialnorm_Maximum/String : -31 dB
dialnorm_Count : 389

pb.wtf



Скачать Ледник через торрент http://s019.radikal.ru/i624/1308/1d/c31488443aeb.jpg Скачать фильм Ледник через торрент бесплантно в хорошем качестве Описание: Молодая пара ученых отправляется на скованную льдами исследовательскую базу. Весь ее персонал бесследно исчез. Они - единственные ... 9 10 45
Info! Золотая раздача, скачанное не засчитывается.
Торрент: Зарегистрирован [2013-12-07 08:54] · скачан: 313 раз
Статус: √ проверено
Размер: 1.46 GB
Как cкачать? Как скачать Ледник через торрент | qTorrent

% Раздел Тема Автор DL S | L
Фильмы 2012 [ 1.46 GB ] Ледник / Frost [2012 Исландия Финляндия DVDRip | лицензия Ворон Скачать
1 | 0
Фильмы (DVD фильмы) [ 4.27 GB ] Ледник / Frost [2013 DVD5] R5 voovaz Скачать
1 | 0


Последний раз редактировалось: GEKADOL (2013-08-31 08:20), всего редактировалось 1 раз

28-11-2019 20:33  

Отключить всю рекламу на сайте

31-08-2013 04:26 Ледник Скачать торрент  

говорят хороший фильмpb.wtf



31-08-2013 04:34 Ледник Скачать торрент  

говорят там одноголосый переводpb.wtf



31-08-2013 04:53 Ледник Скачать торрент  

Ну, и какой тут нахрен дубляж?!!!pb.wtf



31-08-2013 05:57 Ледник Скачать торрент  

GEKADOL
1. Озвучивание здесь одноголосое!!!
2. Добавь сэмпл

Как изготовить минутный видео сэмпл
Для изменения статуса раздачи, после исправления со ссылкой на раздачуpb.wtf



31-08-2013 05:58 Ледник Скачать торрент  

голимый шлак снятый эпилепсиком как и экспедиция дятлова качать не буду бесят такие фильмыpb.wtf



31-08-2013 16:46 Ледник Скачать торрент  

MEXAHUK66 писал(а):

голимый шлак снятый эпилепсиком как и экспедиция дятлова качать не буду бесят такие фильмы

ууух, злюка не качай, кто заставляетpb.wtf



02-09-2013 18:47 Ледник Скачать торрент  

MEXAHUK66 писал(а):

голимый шлак снятый эпилепсиком как и экспедиция дятлова качать не буду бесят такие фильмы

Поддерживаю,за такие съемки ручки надо отрывать по плечи,любительская камера-вашу мать. За труды автору спасибо.pb.wtf



07-12-2013 09:56 Ледник Скачать торрент  

Ну что так грубо, руки отрывать только лишь за снятый фильм. РУки отрывать надо за воровство.pb.wtf



07-12-2013 09:57 Ледник Скачать торрент  

ar4i99 писал(а):

говорят хороший фильм

кто говорит?
http://www.kinopoisk.ru/film/661575/pb.wtf



07-12-2013 11:18 Ледник Скачать торрент  

chuck1979 писал(а):

Ну что так грубо, руки отрывать только лишь за снятый фильм. РУки отрывать надо за воровство.

+100pb.wtf



07-12-2013 12:11 Ледник Скачать торрент  

Я думал что я некогда не увижу фильма круче чем "Месть Чупакабры". Но увы я ошибался :rofle:pb.wtf



25-08-2016 05:40 Ледник Скачать торрент  

Народ встаньте на раздачу, ПЛИЗ! Нет ни одного пира, не скачивается!pb.wtf



    Дорогой пользователь! Огромная просьба, поблагодарите релизера, оцените раздачу и оставьте свои комментарий, если Вы скачали Ледник через торрент бесплатно! Внесите свою лепту в развитие PiratBit!
    Комментировать посты могут только пользователи прошедшие не сложную регистрацию
    Показать сообщения:    

    Ледник через торрент
    Скачать бесплатно Ледник
    Ледник скачать торрент
    Ледник смотреть онлайн
    Cкачать фильм Ледник бесплатно
    Ледник скачать торрент в хорошем качестве
    Ледник смотреть онлайн бесплатно в хорошем качестве


    Вы не можете начинать темы
    Вы не можете отвечать на сообщения
    Вы не можете редактировать свои сообщения
    Вы не можете удалять свои сообщения
    Вы не можете голосовать в опросах
    Вы не можете прикреплять файлы к сообщениям
    Вы можете скачивать файлы