2 сезон

iTunes

MVO

1

2 сезон

iTunes

iTunes

1 сезон

RePack

30

Новинка

ВАЖНО

ИГРА 18+

pack

RePack

MK11
pack

Легкие деньги

RePack

jed

RePack

fifa19

RePack

RDR2

RePack

NEED FOR SPEED™ PAYBACK

4 сезон

9 сезон

Бесстыжие 9 сезон

Все сериалы

все сериалы на PB.wtf

RePack

FAR CRY 5

Anonymous, доброе утро, мы не успеваем собрать деньги на оплату серверов за декабрь и январь, помогите нам пожалуйста в это трудное время. В качестве благодарности мы отключим Вам всю рекламу на сайте (укажите свой ник в строку Ваше имя)!

×
  
Magnet ссылка

Видео от Silent Circle / Silent Circle - Videos [1999 г., Pop, EuroDisco, DVDRip] pb.wtf

Видео от Silent Circle через торрент pb.wtf

Размер: 1.37 GB | Добавлен: 7 лет 1 мес. назад | Торрент скачан:125 раз
Скачать  

07-12-2013 12:43 Видео от Silent Circle Скачать торрент  

Видео от Silent Circle
Год выпуска: 1999
Страна: Germany
Жанр: Pop, EuroDisco
Продолжительность: 01:43:37
Перевод: Оригинал

В ролях: Silent Circle : Мартин Тихсен (вокал), Аксель Брайтунг (клавишные) и Юрген Беренс (ударные)

Описание: Немецкая группа Silent Circle под различными названиями протянула более двух десятков лет, сделав карьеру, кишащую казусами. Ну где еще можно встретить музыкантов, которые записали свой дебютный альбом через 10 лет после того, как собрались?

Качество: DVDRip
Формат: AVI
Видео кодек: XviD
Аудио кодек: AC3
Видео: Xvid 512x384, 25.00fps, 1 630 Kbps
Аудио: Dolby AC3 48000Hz stereo, 256kbps
Релиз от: NNM-Club





General
Complete name : G:Silent Circle.Lug 30.avi
Format : AVI
Format/Info : Audio Video Interleave
File size : 1.37 GiB
Duration : 1h 43mn
Overall bit rate : 1 893 Kbps
Writing application : VirtualDubMod 1.5.4.1 (build 2178/release)
Writing library : VirtualDubMod build 2178/release

Video
ID : 0
Format : MPEG-4 Visual
Format profile : Advanced Simple@L5
Format settings, BVOP : 1
Format settings, QPel : No
Format settings, GMC : No warppoints
Format settings, Matrix : Custom
Codec ID : XVID
Codec ID/Hint : XviD
Duration : 1h 43mn
Bit rate : 1 630 Kbps
Width : 512 pixels
Height : 384 pixels
Display aspect ratio : 4:3
Frame rate : 25.000 fps
Color space : YUV
Chroma subsampling : 4:2:0
Bit depth : 8 bits
Scan type : Progressive
Compression mode : Lossy
Bits/(Pixel*Frame) : 0.332
Stream size : 1.18 GiB (86%)
Writing library : XviD 64

Audio
ID : 1
Format : AC-3
Format/Info : Audio Coding 3
Mode extension : CM (complete main)
Codec ID : 2000
Duration : 1h 43mn
Bit rate mode : Constant
Bit rate : 256 Kbps
Channel(s) : 2 channels
Channel positions : Front: L R
Sampling rate : 48.0 KHz
Bit depth : 16 bits
Compression mode : Lossy
Stream size : 190 MiB (14%)
Alignment : Split accross interleaves
Interleave, duration : 96 ms (2.40 video frames)
Interleave, preload duration : 96 ms
Language : English

pb.wtf



Скачать Видео от Silent Circle через торрент http://pic.kartinco.top/images/6/q4v1q.jpg Скачать фильм Видео от Silent Circle через торрент бесплантно в хорошем качестве Описание: Немецкая группа Silent Circle под различными названиями протянула более двух десятков лет, сделав карьеру, кишащую казусами. Ну ... 9.3 10 13
Info! Золотая раздача, скачанное не засчитывается.
Торрент: Зарегистрирован [2013-12-07 12:43] · скачан: 125 раз
Статус: √ проверено
Размер: 1.37 GB
Как cкачать? Как скачать Видео от Silent Circle через торрент | UTorrent

28-11-2019 20:33  

Отключить всю рекламу на сайте

07-12-2013 20:28 Видео от Silent Circle Скачать торрент  

СУПЕР счас скачаем Disko 80-хpb.wtf



20-12-2013 19:58 Видео от Silent Circle Скачать торрент  

pb.wtf



    Дорогой пользователь! Огромная просьба, поблагодарите релизера, оцените раздачу и оставьте свои комментарий, если Вы скачали Видео от Silent Circle через торрент бесплатно! Внесите свою лепту в развитие PiratBit!
    Комментировать посты могут только пользователи прошедшие не сложную регистрацию
    Показать сообщения:    

    Видео от Silent Circle через торрент
    Скачать бесплатно Видео от Silent Circle
    Видео от Silent Circle скачать торрент
    Видео от Silent Circle смотреть онлайн
    Cкачать фильм Видео от Silent Circle бесплатно
    Видео от Silent Circle скачать торрент в хорошем качестве
    Видео от Silent Circle смотреть онлайн бесплатно в хорошем качестве


    Вы не можете начинать темы
    Вы не можете отвечать на сообщения
    Вы не можете редактировать свои сообщения
    Вы не можете удалять свои сообщения
    Вы не можете голосовать в опросах
    Вы не можете прикреплять файлы к сообщениям
    Вы можете скачивать файлы