Ссылка на приватное зеркало нашего сайта всего за 1$. Внимание количество ограничено!!!

2 сезон

iTunes

1 сезон

1

iTunes

iTunes

iTunes

1 сезон

RePack

30

ИГРА 18+

pack

ВАЖНО

!!Акция!!

Alien_RageХит недели

RePack

MK11
pack

Забери бонус

RePack

jed

!!Акция!!

Alien_Rage

RePack

fifa19

RePack

Assassins Creed: Odyssey

RePack

NEED FOR SPEED™ PAYBACK

4 сезон

9 сезон

Бесстыжие 9 сезон

Все сериалы

все сериалы на PB.wtf

RePack

FAR CRY 5
  

Альфа и Омега: Приключения праздничного воя / Alpha and Omega 2: A Howl-iday Adventure (Ричард Рич / Richard Rich) [ 2013 , США , мультфильм, комедия, приключения , BDRip ]Профессиональный (многоголосый, закадровый) pb.wtf

Альфа и Омега: Приключения праздничного воя через торрент pb.wtf

Размер: 2.02 GB | Добавлен: 6 лет 10 мес. назад | Торрент скачан:1136 раз
Скачать  

08-12-2013 02:11 Альфа и Омега: Приключения праздничного воя Скачать торрент  

Альфа и Омега: Приключения праздничного воя / Alpha and Omega 2: A Howl-iday Adventure

Год выпуска: 2013
Страна: США
Жанр: мультфильм, комедия, приключения, семейный
Продолжительность: 00:45:07
Перевод: Профессиональный (многоголосый, закадровый)
Субтитры: Английские, Испанские

Режиссер: Ричард Рич / Richard Rich
Сценарий: Стив Мур / Steve Moore
Продюсер: Дэниэл Энгельхардт / Daniel Engelhardt, Сьюзэн Гелб / Susan Gelb, Кен Кацумото / Ken Katsumoto, Ричард Рич / Richard Rich, Ной Фогельсон / Noah Fogelson
Композитор: Крис П. Бэйкон / Chris P. Bacon

Бен Дискин (Humphrey, озвучка), Кейт Хиггинс (Kate, Stinky, Lily, озвучка), Blackie Rose (Garth, King, озвучка), Lindsay Torrance (Claudette, озвучка), Liza West (Runt, озвучка), Трэйси Пфау (Eve, озвучка), Bill Lader (Tony, озвучка), Meryl Leigh (Princess, озвучка), Шон Жерардо (Rogue Wolf #1, озвучка), Chris Smith (Marcel, Paddy, озвучка)

Мировая премьера: 8 октября 2013

Описание:Кейт и Хамфри и их 3 волчат, готовятся к празднованию их первой совместной зимы, когда их самый маленький детеныш, Рант, таинственным образом исчезает.

Рейтинг
kinopoisk.ru: 6.429 (22)
imdb.com: 5.30 (111)

Качество: BDRip720
Формат: MKV
Видео кодек: AVC
Аудио кодек: AC3/DTS
Видео: 4572 Кбит/сек, 1280*720 (16:9), в 23,976 кадра/сек, AVC
Аудио №1: русский 192 Кбит/сек, 48,0 КГц, 16 бит, 2 канала, AC-3
Аудио №2: английский 1509 Кбит/сек, 48,0 КГц, 24 бит, 6 каналов, DTS

Общее
Кол-во : 284
Кол-во потоков такого типа : 1
Тип потока : General
Тип потока : Общее
Идентификатор типа потока : 0
Inform : Matroska: 2,02 Гбайт, 45 м.
Уникальный идентификатор : 207909093711235711845821604286435037024
Уникальный идентификатор : 207909093711235711845821604286435037024 (0x9C69D5BDE64CCA42B95E32220D5A0F60)
Кол-во видеопотоков : 1
Кол-во аудиопотоков : 2
Кол-во текстовых потоков : 3
Кол-во потоков меню : 1
Video_Format_List : AVC
Video_Format_WithHint_List : AVC
Видеокодеки : AVC
Video_Language_List : English
Audio_Format_List : AC-3 / DTS
Audio_Format_WithHint_List : AC-3 / DTS
Аудиокодеки : AC3 / DTS
Audio_Language_List : / English
Text_Format_List : PGS / PGS / PGS
Text_Format_WithHint_List : PGS / PGS / PGS
Текстовые кодеки : S_HDMV/PGS / S_HDMV/PGS / S_HDMV/PGS
Text_Language_List : English / English / Spanish
Полное имя : H:ТОРРЕНТЫАльфа и Омега2.mkv
Имя папки : H:ТОРРЕНТЫ
Имя файла : Альфа и Омега2
Расширение : mkv
Формат : Matroska
Формат : Matroska
Формат/Ссылка : http://packs.matroska.org/
Формат/Используется в : mkv mk3d mka mks
Коммерческое название : Matroska
Версия формата : Version 4 / Version 2
Кодек : Matroska
Кодек : Matroska
Кодек/Ссылка : http://packs.matroska.org/
Кодек/Используется в : mkv mk3d mka mks
Размер файла : 2166169374
Размер файла : 2,02 Гбайт
Размер файла : 2 Гбайт
Размер файла : 2,0 Гбайт
Размер файла : 2,02 Гбайт
Размер файла : 2,017 Гбайт
Продолжительность : 2707552
Продолжительность : 45 м.
Продолжительность : 45 м. 7 с. 552 мс.
Продолжительность : 45 м.
Продолжительность : 00:45:07.552
Общий поток : 6400378
Общий поток : 6400 Кбит/сек
Размер потока : 43112974
Размер потока : 41,1 Мбайт (2%)
Размер потока : 41 Мбайт
Размер потока : 41 Мбайт
Размер потока : 41,1 Мбайт
Размер потока : 41,12 Мбайт
Размер потока : 41,1 Мбайт (2%)
Пропорции потока : 0.01990
Дата кодирования : UTC 2013-12-06 13:20:45
Дата файла : UTC 2013-12-08 01:39:40.353
Дата файла (местная) : 2013-12-08 08:39:40.353
Дата изменения файла : UTC 2013-12-08 01:48:29.175
Дата изменения файла (местная) : 2013-12-08 08:48:29.175
Программа кодирования : mkvmerge v6.5.0 ('Isn't she lovely') built on Oct 20 2013 12:50:05
Библиотека кодирования : libebml v1.3.0 + libmatroska v1.4.1
Библиотека кодирования : libebml v1.3.0 + libmatroska v1.4.1

Видео
Кол-во : 271
Кол-во потоков такого типа : 1
Тип потока : Video
Тип потока : Видео
Идентификатор типа потока : 0
StreamOrder : 0
Inform : English, 4572 Кбит/сек, 1280*720 (16:9), в 23,976 кадра/сек, AVC (High@L4.1) (CABAC / 5 Ref Frames)
Идентификатор : 1
Идентификатор : 1
Уникальный идентификатор : 1
Формат : AVC
Формат/Информация : Advanced Video Codec
Формат/Ссылка : http://developers.videolan.org/x264.html
Коммерческое название : AVC
Профиль формата : High@L4.1
Настройки формата : CABAC / 5 Ref Frames
Параметр CABAC формата : Yes
Параметр CABAC формата : Да
Параметр ReFrames формата : 5
Параметр ReFrames формата : 5 кадров
Интернет-тип носителя : video/H264
Идентификатор кодека : V_MPEG4/ISO/AVC
Идентификатор кодека/Ссылка : http://ffdshow-tryout.sourceforge.net/
Кодек : V_MPEG4/ISO/AVC
Кодек : AVC
Кодек/Семейство : AVC
Кодек/Информация : Advanced Video Codec
Кодек/Ссылка : http://ffdshow-tryout.sourceforge.net/
Профиль кодека : High@L4.1
Настройки кодека : CABAC / 5 Ref Frames
Параметр CABAC кодека : Yes
Codec_Settings_RefFrames : 5
Продолжительность : 2707541
Продолжительность : 45 м.
Продолжительность : 45 м. 7 с. 541 мс.
Продолжительность : 45 м.
Продолжительность : 00:45:07.541
Битрейт : 4572010
Битрейт : 4572 Кбит/сек
Ширина : 1280
Ширина : 1280 пикселей
Высота : 720
Высота : 720 пикселей
Пропорции пикселя : 1.000
Соотношение сторон : 1.778
Соотношение сторон : 16:9
Режим частоты кадров : CFR
Режим частоты кадров : Постоянный
Частота кадров : 23.976
Частота кадров : 23,976 кадра/сек
Счётчик кадров : 64916
Разрешение : 8
Разрешение : 8 бит
Колориметрия : 4:2:0
Цветовое пространство : YUV
Субдискретизация насыщенности : 4:2:0
Битовая глубина : 8
Битовая глубина : 8 бит
Тип развёртки : Progressive
Тип развёртки : Прогрессивная
Переплетение : PPF
Переплетение : Прогрессивная
Бит/(Пиксели*Кадры) : 0.207
Задержка : 0
Задержка : 00:00:00.000
Задержка в оригинале : Container
Задержка в оригинале : Контейнер
Размер потока : 1547363156
Размер потока : 1,44 Гбайт (71%)
Размер потока : 1 Гбайт
Размер потока : 1,4 Гбайт
Размер потока : 1,44 Гбайт
Размер потока : 1,441 Гбайт
Размер потока : 1,44 Гбайт (71%)
Пропорции потока : 0.71433
Язык : en
Язык : English
Язык : English
Язык : en
Язык : eng
Язык : en
Default : Yes
Default : Да
Forced : No
Forced : Нет

Аудио #1
Кол-во : 244
Кол-во потоков такого типа : 2
Тип потока : Audio
Тип потока : Аудио
Идентификатор типа потока : 0
Позиция идентификатора типа потока : 1
StreamOrder : 1
Inform : 192 Кбит/сек, 48,0 КГц, 16 бит, 2 канала, AC-3
Идентификатор : 2
Идентификатор : 2
Уникальный идентификатор : 2200786594657186691
Формат : AC-3
Формат/Информация : Audio Coding 3
Коммерческое название : AC-3
Расширение режима : CM (complete main)
Параметр Endianness формата : Big
Идентификатор кодека : A_AC3
Кодек : AC3
Кодек : AC3
Кодек/Семейство : AC3
Кодек/Информация : Dolby AC3
Продолжительность : 2707552
Продолжительность : 45 м.
Продолжительность : 45 м. 7 с. 552 мс.
Продолжительность : 45 м.
Продолжительность : 00:45:07.552
Вид битрейта : CBR
Вид битрейта : Постоянный
Битрейт : 192000
Битрейт : 192 Кбит/сек
Каналы : 2
Каналы : 2 канала
Расположение каналов : Front: L R
Расположение каналов : 2/0/0
Частота : 48000
Частота : 48,0 КГц
Количество образцов : 129962496
Разрешение : 16
Разрешение : 16 бит
Битовая глубина : 16
Битовая глубина : 16 бит
Метод сжатия : Lossy
Метод сжатия : С потерями
Задержка : 0
Задержка : 00:00:00.000
Задержка в оригинале : Container
Задержка в оригинале : Контейнер
Задержка видео : 0
Задержка видео : 0
Размер потока : 64981248
Размер потока : 62,0 Мбайт (3%)
Размер потока : 62 Мбайт
Размер потока : 62 Мбайт
Размер потока : 62,0 Мбайт
Размер потока : 61,97 Мбайт
Размер потока : 62,0 Мбайт (3%)
Пропорции потока : 0.03000
Default : Yes
Default : Да
Forced : No
Forced : Нет
bsid : 8
dialnorm : -27
dialnorm/String : -27 dB
compr : -0.28
compr/String : -0.28 dB
dsurmod : 0
acmod : 2
lfeon : 0
dialnorm_Average : -27
dialnorm_Average/String : -27 dB
dialnorm_Minimum : -27
dialnorm_Minimum/String : -27 dB
dialnorm_Maximum : -27
dialnorm_Maximum/String : -27 dB
dialnorm_Count : 2
compr_Average : -0.28
compr_Average/String : -0.28 dB
compr_Minimum : -0.28
compr_Minimum/String : -0.28 dB
compr_Maximum : -0.28
compr_Maximum/String : -0.28 dB
compr_Count : 2

Аудио #2
Кол-во : 222
Кол-во потоков такого типа : 2
Тип потока : Audio
Тип потока : Аудио
Идентификатор типа потока : 1
Позиция идентификатора типа потока : 2
StreamOrder : 2
Inform : English, 1509 Кбит/сек, 48,0 КГц, 24 бит, 6 каналов, DTS
Идентификатор : 3
Идентификатор : 3
Уникальный идентификатор : 15717119769277420198
Формат : DTS
Формат/Информация : Digital Theater Systems
Коммерческое название : DTS
Режим : 16
Параметр Endianness формата : Big
Идентификатор кодека : A_DTS
Кодек : DTS
Кодек : DTS
Кодек/Семейство : DTS
Продолжительность : 2707552
Продолжительность : 45 м.
Продолжительность : 45 м. 7 с. 552 мс.
Продолжительность : 45 м.
Продолжительность : 00:45:07.552
Вид битрейта : CBR
Вид битрейта : Постоянный
Битрейт : 1509000
Битрейт : 1509 Кбит/сек
Каналы : 6
Каналы : 6 каналов
Расположение каналов : Front: L C R, Side: L R, LFE
Расположение каналов : 3/2/0.1
Частота : 48000
Частота : 48,0 КГц
Количество образцов : 129962496
Разрешение : 24
Разрешение : 24 бит
Битовая глубина : 24
Битовая глубина : 24 бит
Метод сжатия : Lossy
Метод сжатия : С потерями
Задержка : 0
Задержка : 00:00:00.000
Задержка в оригинале : Container
Задержка в оригинале : Контейнер
Задержка видео : 0
Задержка видео : 0
Размер потока : 510711996
Размер потока : 487 Мбайт (24%)
Размер потока : 487 Мбайт
Размер потока : 487 Мбайт
Размер потока : 487 Мбайт
Размер потока : 487,1 Мбайт
Размер потока : 487 Мбайт (24%)
Пропорции потока : 0.23577
Язык : en
Язык : English
Язык : English
Язык : en
Язык : eng
Язык : en
Default : No
Default : Нет
Forced : No
Forced : Нет

Текст #1
Кол-во : 195
Кол-во потоков такого типа : 3
Тип потока : Text
Тип потока : Текст
Идентификатор типа потока : 0
Позиция идентификатора типа потока : 1
StreamOrder : 3
Inform : English, PGS (zlib)
Идентификатор : 4
Идентификатор : 4
Уникальный идентификатор : 12365011052330770833
Формат : PGS
Коммерческое название : PGS
Режим смешивания : zlib
Идентификатор кодека : S_HDMV/PGS
Идентификатор кодека/Информация : The same subtitle format used on BDs/HD-DVDs
Кодек : S_HDMV/PGS
Кодек : S_HDMV/PGS
Язык : en
Язык : English
Язык : English
Язык : en
Язык : eng
Язык : en
Default : No
Default : Нет
Forced : No
Forced : Нет

Текст #2
Кол-во : 195
Кол-во потоков такого типа : 3
Тип потока : Text
Тип потока : Текст
Идентификатор типа потока : 1
Позиция идентификатора типа потока : 2
StreamOrder : 4
Inform : English, PGS (zlib)
Идентификатор : 5
Идентификатор : 5
Уникальный идентификатор : 16883248007984341154
Формат : PGS
Коммерческое название : PGS
Режим смешивания : zlib
Идентификатор кодека : S_HDMV/PGS
Идентификатор кодека/Информация : The same subtitle format used on BDs/HD-DVDs
Кодек : S_HDMV/PGS
Кодек : S_HDMV/PGS
Язык : en
Язык : English
Язык : English
Язык : en
Язык : eng
Язык : en
Default : No
Default : Нет
Forced : No
Forced : Нет

Текст #3
Кол-во : 195
Кол-во потоков такого типа : 3
Тип потока : Text
Тип потока : Текст
Идентификатор типа потока : 2
Позиция идентификатора типа потока : 3
StreamOrder : 5
Inform : Spanish, PGS (zlib)
Идентификатор : 6
Идентификатор : 6
Уникальный идентификатор : 3097602501119205770
Формат : PGS
Коммерческое название : PGS
Режим смешивания : zlib
Идентификатор кодека : S_HDMV/PGS
Идентификатор кодека/Информация : The same subtitle format used on BDs/HD-DVDs
Кодек : S_HDMV/PGS
Кодек : S_HDMV/PGS
Язык : es
Язык : Spanish
Язык : Spanish
Язык : es
Язык : spa
Язык : es
Default : No
Default : Нет
Forced : No
Forced : Нет

Меню
Кол-во : 85
Кол-во потоков такого типа : 1
Тип потока : Menu
Тип потока : Меню
Идентификатор типа потока : 0
Chapters_Pos_Begin : 77
Chapters_Pos_End : 85
00:00:00.000 : en:00:00:00.000
00:04:27.809 : en:00:04:27.809
00:07:03.882 : en:00:07:03.882
00:16:12.847 : en:00:16:12.847
00:21:06.932 : en:00:21:06.932
00:26:10.652 : en:00:26:10.652
00:31:26.468 : en:00:31:26.468
00:37:05.932 : en:00:37:05.932


скриншот  скриншот  скриншот  скриншот  скриншот  скриншот  



pb.wtf



Скачать Альфа и Омега: Приключения праздничного воя через торрент http://trueimages.ru/img/c7/74/b7fc3a25.jpg Скачать фильм Альфа и Омега: Приключения праздничного воя через торрент бесплантно в хорошем качестве Описание:Кейт и Хамфри и их 3 волчат, готовятся к празднованию их первой совместной зимы, когда их самый маленький детеныш, Рант, ... 9.7 10 40
Info! Золотая раздача, скачанное не засчитывается.
Торрент: Зарегистрирован [2013-12-08 02:11] · скачан: 1 136 раз
Статус: √ проверено
Размер: 2.02 GB
Как cкачать? Как скачать Альфа и Омега: Приключения праздничного воя через торрент | qTorrent

% Раздел Тема Автор DL S | L
Иностранные мультфильмы [ 700 MB ] Альфа и Омега: праздничного воя / Alpha and Omega 2: A Howl-iday Adventure [2013 Мультфильм HDRip ] XLASER Скачать
1 | 0

28-11-2019 20:33  

Отключить всю рекламу на сайте

08-12-2013 03:29 Альфа и Омега: Приключения праздничного воя Скачать торрент  

спасибо,мелкому точно понравится)pb.wtf



08-12-2013 03:46 Альфа и Омега: Приключения праздничного воя Скачать торрент  

ФёдорOFF писал(а):

спасибо,мелкому точно понравится)

Пусть смотрит)) pb.wtf



08-12-2013 08:02 Альфа и Омега: Приключения праздничного воя Скачать торрент  

будем смотреть, спасибо за раздачуpb.wtf



10-12-2013 06:57 Альфа и Омега: Приключения праздничного воя Скачать торрент  

Спасибо за мультфильм! Хотя, ощущение от него неоднозначное. С одной стороны. все так же симпатично и по-доброму как в первой части. с другой стороны - складывается впечатление, что то-ли сценарий в задуманное время не вошел, и середину фильма выкинули, то-ли у сценариста в процессе работы вдохновение ушло, а ставить что-то надо было, и получился фильм с неясным концом и потерянными линиями персонажей **'pb.wtf



    Дорогой пользователь! Огромная просьба, поблагодарите релизера, оцените раздачу и оставьте свои комментарий, если Вы скачали Альфа и Омега: Приключения праздничного воя через торрент бесплатно! Внесите свою лепту в развитие PiratBit!
    Комментировать посты могут только пользователи прошедшие не сложную регистрацию
    Показать сообщения:    

    Альфа и Омега: Приключения праздничного воя через торрент
    Скачать бесплатно Альфа и Омега: Приключения праздничного воя
    Альфа и Омега: Приключения праздничного воя скачать торрент
    Альфа и Омега: Приключения праздничного воя смотреть онлайн
    Cкачать фильм Альфа и Омега: Приключения праздничного воя бесплатно
    Альфа и Омега: Приключения праздничного воя скачать торрент в хорошем качестве
    Альфа и Омега: Приключения праздничного воя смотреть онлайн бесплатно в хорошем качестве


    Вы не можете начинать темы
    Вы не можете отвечать на сообщения
    Вы не можете редактировать свои сообщения
    Вы не можете удалять свои сообщения
    Вы не можете голосовать в опросах
    Вы не можете прикреплять файлы к сообщениям
    Вы можете скачивать файлы