2 сезон

iTunes

MVO

1

2 сезон

iTunes

iTunes

1 сезон

RePack

30

Новинка

ВАЖНО

ИГРА 18+

pack

RePack

MK11
pack

Легкие деньги

RePack

jed

RePack

fifa19

RePack

RDR2

RePack

NEED FOR SPEED™ PAYBACK

4 сезон

9 сезон

Бесстыжие 9 сезон

Все сериалы

все сериалы на PB.wtf

RePack

FAR CRY 5

Anonymous, добрый день, мы не успеваем собрать деньги на оплату серверов за декабрь и январь, помогите нам пожалуйста в это трудное время. В качестве благодарности мы отключим Вам всю рекламу на сайте (укажите свой ник в строку Ваше имя)!

×
  
Magnet ссылка

Сон №5 (Сергей Ткачев) [2010 г., детектив, WEB-DLRip] pb.wtf

Сон №5 через торрент pb.wtf

Размер: 1.37 GB | Добавлен: 7 лет 1 мес. назад | Торрент скачан:14 раз
Скачать  

08-12-2013 16:47 Сон №5 Скачать торрент  

Сон №5
Год выпуска: 2010
Страна: Россия / TATA STUDIO
Жанр: детектив
Продолжительность: 01:17:35

Режиссер: Сергей Ткачев
Продюссер: Сергей Ткачев, Наталия Ткачева
Сценарий: Сергей Ткачев



В ролях: Наталия Ткачева, Владислав Сыч, Анатолий Горячев, Сергей Ткачев, Вероника Ткачева, Никита Ткачев,

Описание: …Мама двоих малолетних детишек, Маргарита Котельникова (НАТАЛИЯ ТКАЧЕВА) видит навязчивые сны о местах, в которых она никогда не бывала и о событиях, в которых она никогда не участвовала. Это обстоятельство вынуждает её обратиться к психоаналитику (СЕРГЕЙ ЩЕПАЧЕВ). Детали и подробности этих сновидений приводят его в полное замешательство, особенно когда пациентка описывает даже форму дверных ручек на одной из улиц в Париже, в котором она никогда не была. Положение усугубляется, когда при странных обстоятельствах погибает её любовник Максим (СЕРГЕЙ ТКАЧЕВ), а каждый её шаг неотвязно отслеживает неизвестный тип в очках (ГЕННАДИЙ КАРПЕНКО).
Раскрутить этот загадочный клубок берётся один не в меру упрямый детектив (ВЛАДИСЛАВ СЫЧ). Постепенно тонкая грань между миром реальным и воображаемым становится едва различимой…

Качество: WEB-DLRip
Формат: AVI
Видео кодек: XviD
Аудио кодек: MP3
Видео: 720x400 (1.80:1), 50 fps, XviD build 50 ~2391 kbps avg, 0.17 bit/pixel
Аудио: 44.100 kHz, MPEG Layer 3, 2 ch, ~128.00 kbps avg


General
Complete name : I:киноСон №5.2010.WEB-DLRip.1400MB.avi
Format : AVI
Format/Info : Audio Video Interleave
File size : 1.37 GiB
Duration : 1h 17mn
Overall bit rate mode : Variable
Overall bit rate : 2 536 Kbps
Movie name : Сон №5.2010.WEB-DLRip.1400MB.avi
Director : by coc900
Writing application : VirtualDubMod 1.5.10.3 | www.virtualdub-fr.org || (build 2550/release)
Copyright : Piratbit.net

Video
ID : 0
Format : MPEG-4 Visual
Format profile : Advanced Simple@L5
Format settings, BVOP : 3
Format settings, QPel : Yes
Format settings, GMC : 3 warppoints
Format settings, Matrix : Default (H.263)
Codec ID : XVID
Codec ID/Hint : XviD
Duration : 1h 17mn
Bit rate : 2 391 Kbps
Width : 720 pixels
Height : 400 pixels
Display aspect ratio : 16:9
Frame rate : 50.000 fps
Color space : YUV
Chroma subsampling : 4:2:0
Bit depth : 8 bits
Scan type : Progressive
Compression mode : Lossy
Bits/(Pixel*Frame) : 0.166
Stream size : 1.30 GiB (94%)
Writing library : XviD 1.2.1 (UTC 2008-12-04)

Audio
ID : 1
Format : MPEG Audio
Format version : Version 1
Format profile : Layer 3
Codec ID : 55
Codec ID/Hint : MP3
Duration : 1h 17mn
Bit rate mode : Variable
Bit rate : 128 Kbps
Channel(s) : 2 channels
Sampling rate : 44.1 KHz
Compression mode : Lossy
Stream size : 71.0 MiB (5%)
Alignment : Aligned on interleaves
Interleave, duration : 26 ms (1.31 video frame)
Interleave, preload duration : 502 ms
Writing library : LAME3.98r
Encoding settings : -m s -V 4 -q 2 -lowpass 17 -b 128

pb.wtf



Скачать Сон №5 через торрент https://pic.kartinco.top/images/6/14hih.jpg Скачать фильм Сон №5 через торрент бесплантно в хорошем качестве Описание: …Мама двоих малолетних детишек, Маргарита Котельникова (НАТАЛИЯ ТКАЧЕВА) видит навязчивые сны о местах, в которых она никогда не ... 10 10 3
Info! Золотая раздача, скачанное не засчитывается.
Торрент: Зарегистрирован [2013-12-08 16:47] · скачан: 14 раз
Статус: √ проверено
Размер: 1.37 GB
Как cкачать? Как скачать Сон №5 через торрент | UTorrent

% Раздел Тема Автор DL S | L
Фильмы (WEB-DL 720p, 1080p) [ 3.73 GB ] 5-я волна / The 5th Wave [2016 WEB DL 720p] $-DRON-$ Скачать
1 | 0
Фильмы 2016 [DVDrip, WEB-DLRip, HDrip] (DUB, MVO) [ 1.46 GB ] 5-я волна / The 5th Wave [2016 BDRip-AVC от sokol_ok] DUB sokol_ok Скачать
2 | 0
# Фильмы без перевода [ 2.22 GB ] Улица потрошителя / Ripper Street /Сезон: 5 / Серии: 1-6 из 6 [2016 WEBRip-AVC] [ENG] + [Sub] killermax2013 Скачать
1 | 0
National Geographic [ 13.19 GB ] Самые странные в мире / World's Weirdest [Сезоны 1-5 Серии 1-27 из ???] [2011-2016 гг Документальный флора фауна HDTVRip by _Один_777] VО Один 777 Скачать
1 | 0
Сборники отечественного шансона [ 692 MB ] VA- Радио Шансон За рулем с блатным радио 5 2016 / MP3 / 256 kbps / Шансон Бумер Скачать
1 | 0
Сборники отечественного шансона [ 679 MB ] VA - Шальной музон для хорошего настроения 5 2016 / MP3 / 256 kbps / Шансон bober100 Скачать
1 | 0
Сборники отечественного шансона [ 679 MB ] VA - Музыкальное наслаждение от радио Шансон 5 2016 / MP3 / 256 kbps / Шансон bober100 Скачать
1 | 0

28-11-2019 20:33  

Отключить всю рекламу на сайте

08-12-2013 16:54 Сон №5 Скачать торрент  

Режиссер Сергей Ткачев о фильме «Сон №5»:«…Сон №5 это, прежде всего, история женщины в ее отчаянной попытке обрести свое личное счастье и не быть одной. Одинокая женщина – это уже само по себе трагическое обстоятельство, в котором как в зеркале, отражаются все противоречия мира. Только в отличие от зеркала, женщина обречена, чувствовать и переживать …»
…Если Вам снится незнакомый город, манящий и пугающий…

Если Вам снится незнакомый человек, опасный и притягательный…

Если Ваши близкие умирают, а Ваши сны не проходят…

Не стоит обращаться к психиатру, а тем более к тайным агентам… они Вам не помогут…

Пока Вы не проснетесь и не вспомните, чтобы забыть это уже навсегда…

Но до этого ещё надо дожить…

А пока Вы видите всё тот же Сон… …Сон №5…pb.wtf



    Дорогой пользователь! Огромная просьба, поблагодарите релизера, оцените раздачу и оставьте свои комментарий, если Вы скачали Сон №5 через торрент бесплатно! Внесите свою лепту в развитие PiratBit!
    Комментировать посты могут только пользователи прошедшие не сложную регистрацию
    Показать сообщения:    

    Сон №5 через торрент
    Скачать бесплатно Сон №5
    Сон №5 скачать торрент
    Сон №5 смотреть онлайн
    Cкачать фильм Сон №5 бесплатно
    Сон №5 скачать торрент в хорошем качестве
    Сон №5 смотреть онлайн бесплатно в хорошем качестве


    Вы не можете начинать темы
    Вы не можете отвечать на сообщения
    Вы не можете редактировать свои сообщения
    Вы не можете удалять свои сообщения
    Вы не можете голосовать в опросах
    Вы не можете прикреплять файлы к сообщениям
    Вы можете скачивать файлы