2 сезон

iTunes

MVO

1

2 сезон

iTunes

iTunes

1 сезон

RePack

30

Ultimate

ВАЖНО

ИГРА 18+

pack

RePack

MK11
pack

Легкие деньги

RePack

jed

RePack

fifa19

RePack

RDR2

RePack

NEED FOR SPEED™ PAYBACK

4 сезон

9 сезон

Бесстыжие 9 сезон

Все сериалы

все сериалы на PB.wtf

RePack

FAR CRY 5

Anonymous, добрый день, мы не успеваем собрать деньги на оплату серверов за декабрь и январь, помогите нам пожалуйста в это трудное время. В качестве благодарности мы отключим Вам всю рекламу на сайте (укажите свой ник в строку Ваше имя)!

×
  
Magnet ссылка

Smokie на немецком телевидении - Smokie - Live at Disco (1975-1980) [2008 г., DVDRip] pb.wtf

Smokie на немецком телевидении - Smokie - Live at Disco через торрент pb.wtf

Размер: 703 MB | Добавлен: 7 лет 1 мес. назад | Торрент скачан:94 раза
Скачать  

08-12-2013 16:54 Smokie на немецком телевидении - Smokie - Live at Disco Скачать торрент  

Smokie - на немецком телевидении
Год выпуска: 2008
Страна: Германия
Жанр: Rock
Продолжительность: 00:45:25
Перевод: Оригинал

В ролях: Крис Норман, Алан Силсон, Пит Спенсер, Терри Аттли,

Описание: В основе этого релиза - выступления Smokie в программе Disco немецкого телевидения в период с 1975 по 1980 год. В качестве бонуса на диске - выступления группы в передачах Plattenkuche, Top Of The Pops, а также два дуэта Криса Нормана с Сюзи Куатро - из передачи Disco 1978 года и Hitparade 1992 года.
01. If You Think You Know How To Love Me (06.12.1975)
02. Don't Play Your Rock 'n' Roll To Me (31.01.1976)
03. Wild, Wild Angels (17.07.1976)
04. Living Next Door To Alice (08.01.1977)
05. Lay Back In The Arms Of Someone (25.06.1977)
06. It's Your Life (20.08.1977)
07. For A Few Dollars More (23.01.1978)
08. Mexican Girl (02.10.1978)
09. Babe, It's Up To You (03.12.1979)
10. San Francisco Bay (24.03.1980)
11. Living Next Door To Alice (Plattenkuche, 24.01.1977)
12. Needles And Pins (Top Of The Pops, 1977)
13. Stumblin' In (Chris Norman & Suzi Quatro) (Disco, 27.11.1978)
14. I Need Your Love (Chris Norman & Suzi Quatro) (Hitparade, 22.10.1992)
Качество: DVDRip
Формат: AVI
Видео кодек: DivX 5
Аудио кодек: AC3
Видео: DivX 5 720x552, 25.00fps, 1 706 Kbps
Аудио: Dolby AC3, 48000Hz, 6ch 448kbps
Релиз от: LOOK





Complete name : F:�7 07 2013Smokie_Live.at.Disco.(1975_1980).2008.DVDRip.LOOK.avi
Format : AVI
Format/Info : Audio Video Interleave
File size : 703 MiB
Duration : 45mn 25s
Overall bit rate : 2 164 Kbps
Movie name : Smokie_Live.at.Disco.(1975_1980).2008.DVD-5.Title1.DVDRip
Writing application : Lavf52.33.0
Original source form/Name : Smokie_Live.at.Disco.(1975_1980).2008.DVD-5

Video
ID : 0
Format : MPEG-4 Visual
Format profile : Advanced Simple@L5
Format settings, BVOP : 2
Format settings, QPel : No
Format settings, GMC : No warppoints
Format settings, Matrix : Default (H.263)
Muxing mode : Packed bitstream
Codec ID : DX50
Codec ID/Hint : DivX 5
Duration : 45mn 24s
Bit rate : 1 706 Kbps
Width : 720 pixels
Height : 552 pixels
Display aspect ratio : 4:3
Frame rate : 25.000 fps
Color space : YUV
Chroma subsampling : 4:2:0
Bit depth : 8 bits
Scan type : Progressive
Compression mode : Lossy
Bits/(Pixel*Frame) : 0.172
Stream size : 554 MiB (79%)
Writing library : XviD 1.2.1 (UTC 2008-12-04)

Audio
ID : 1
Format : AC-3
Format/Info : Audio Coding 3
Mode extension : CM (complete main)
Codec ID : 2000
Duration : 45mn 25s
Bit rate mode : Constant
Bit rate : 448 Kbps
Channel(s) : 6 channels
Channel positions : Front: L C R, Side: L R, LFE
Sampling rate : 48.0 KHz
Bit depth : 16 bits
Compression mode : Lossy
Stream size : 146 MiB (21%)
Alignment : Aligned on interleaves
Interleave, duration : 32 ms (0.80 video frame)
Interleave, preload duration : 32 ms

pb.wtf



Скачать Smokie на немецком телевидении - Smokie - Live at Disco через торрент http://pic.kartinco.top/images/6/ttk7z.jpg Скачать фильм Smokie на немецком телевидении - Smokie - Live at Disco через торрент бесплантно в хорошем качестве Описание: В основе этого релиза - выступления Smokie в программе Disco немецкого телевидения в период с 1975 по 1980 год. В качестве бонуса ... 10 10 13
Info! Золотая раздача, скачанное не засчитывается.
Торрент: Зарегистрирован [2013-12-08 16:54] · скачан: 94 раз
Статус: √ проверено
Размер: 703 MB
Как cкачать? Как скачать Smokie на немецком телевидении - Smokie - Live at Disco через торрент | UTorrent

28-11-2019 20:33  

Отключить всю рекламу на сайте


    Дорогой пользователь! Огромная просьба, поблагодарите релизера, оцените раздачу и оставьте свои комментарий, если Вы скачали Smokie на немецком телевидении - Smokie - Live at Disco через торрент бесплатно! Внесите свою лепту в развитие PiratBit!
    Комментировать посты могут только пользователи прошедшие не сложную регистрацию
    Показать сообщения:    

    Smokie на немецком телевидении - Smokie - Live at Disco через торрент
    Скачать бесплатно Smokie на немецком телевидении - Smokie - Live at Disco
    Smokie на немецком телевидении - Smokie - Live at Disco скачать торрент
    Smokie на немецком телевидении - Smokie - Live at Disco смотреть онлайн
    Cкачать фильм Smokie на немецком телевидении - Smokie - Live at Disco бесплатно
    Smokie на немецком телевидении - Smokie - Live at Disco скачать торрент в хорошем качестве
    Smokie на немецком телевидении - Smokie - Live at Disco смотреть онлайн бесплатно в хорошем качестве


    Вы не можете начинать темы
    Вы не можете отвечать на сообщения
    Вы не можете редактировать свои сообщения
    Вы не можете удалять свои сообщения
    Вы не можете голосовать в опросах
    Вы не можете прикреплять файлы к сообщениям
    Вы можете скачивать файлы