2 сезон

iTunes

MVO

1

2 сезон

iTunes

iTunes

1 сезон

RePack

30

Ultimate

ВАЖНО

ИГРА 18+

pack

RePack

MK11
pack

Легкие деньги

RePack

jed

RePack

fifa19

RePack

RDR2

RePack

NEED FOR SPEED™ PAYBACK

4 сезон

9 сезон

Бесстыжие 9 сезон

Все сериалы

все сериалы на PB.wtf

RePack

FAR CRY 5

Anonymous, добрый день, мы не успеваем собрать деньги на оплату серверов за декабрь и январь, помогите нам пожалуйста в это трудное время. В качестве благодарности мы отключим Вам всю рекламу на сайте (укажите свой ник в строку Ваше имя)!

×
  
Magnet ссылка

АлисА - сборник клипов (1987-2008) [2009 г., рок, DVDRip] pb.wtf

АлисА - сборник клипов через торрент pb.wtf

Размер: 1.27 GB | Добавлен: 7 лет 1 мес. назад | Торрент скачан:279 раз
Скачать  

08-12-2013 18:21 АлисА - сборник клипов Скачать торрент  

АлисА - сборник клипов (1987-2008)
Год выпуска: 2009
Страна: СССР,Россия
Жанр: рок
Продолжительность: 01:24:59
Перевод: Оригинал

В ролях: "АлисА": Константин Кинчев, Пётр Самойлов, Евгений Лёвин, Игорь Романов, Андрей Вдовиченко, Дмитрий Парфёнов,

Описание: "Алиса" - это не только популярная рок-группа, собирающая полные залы преданных фанатов, это не только музыка, связывающая поколения 80-х, 90-х и 2000-х., это не только надпись красными буквами на черном фоне.
"Алиса" - это целая эпоха, это группа, в истории которой случалось разное: были взлеты и падения, оглушительный успех и мелкие неприятности, любовь многочисленной армии поклонников и сложные взаимоотношения с властями.
Мы вместе!
1. Экспериментатор
2. Аэробика
3. Атеист
4. Армия жизни
5. Сумерки
6. Паскуда
7. Белая невеста
8. Дождь
9. Лунный вальс
10. Моя религия
11. Трасса Е - 95
12. Рождество
13. Путь в сторону леса
14. Веретено
15. На пороге неба
16. Небо славян
17. Родина
18. Rock-n-roll крест
19. Влacть
20. Крещение
Качество: DVDRip
Формат: AVI
Видео кодек: XviD
Аудио кодек: MP3
Видео: Xvid 720x576, 25.00fps, 1 990 Kbps
Аудио: MPEG Audio Layer 3, 48000Hz stereo, 128kbps
Релиз от: Lug 30





General
Complete name : E:AlisA.avi
Format : AVI
Format/Info : Audio Video Interleave
Format profile : OpenDML
File size : 1.27 GiB
Duration : 1h 24mn
Overall bit rate : 2 133 Kbps
Writing application : 3GP_Converter051103 www.nurs.or.jp/~calcium FFmpeg2.40b((51<<16)+(6<<8)+0)

Video
ID : 0
Format : xvid
Codec ID : xvid
Duration : 1h 24mn
Bit rate : 1 990 Kbps
Width : 720 pixels
Height : 576 pixels
Display aspect ratio : 5:4
Frame rate : 25.000 fps
Standard : PAL
Bits/(Pixel*Frame) : 0.192
Stream size : 1.18 GiB (93%)

Audio
ID : 1
Format : MPEG Audio
Format version : Version 1
Format profile : Layer 3
Mode : Joint stereo
Mode extension : MS Stereo
Codec ID : 55
Codec ID/Hint : MP3
Duration : 1h 24mn
Bit rate mode : Constant
Bit rate : 128 Kbps
Channel(s) : 2 channels
Sampling rate : 48.0 KHz
Compression mode : Lossy
Stream size : 18.4 MiB (1%)
Alignment : Aligned on interleaves
Interleave, duration : 101 ms (2.53 video frames)

pb.wtf



Скачать АлисА - сборник клипов через торрент http://pic.kartinco.top/images/6/yrjbf.jpg Скачать фильм АлисА - сборник клипов через торрент бесплантно в хорошем качестве Описание: "Алиса" - это не только популярная рок-группа, собирающая полные залы преданных фанатов, это не только музыка, связывающая ... 10 10 11
Info! Золотая раздача, скачанное не засчитывается.
Торрент: Зарегистрирован [2013-12-08 18:21] · скачан: 279 раз
Статус: √ проверено
Размер: 1.27 GB
Как cкачать? Как скачать АлисА - сборник клипов через торрент | UTorrent

28-11-2019 20:33  

Отключить всю рекламу на сайте

08-12-2013 19:09 АлисА - сборник клипов Скачать торрент  

Алиса круто, но почему одним файлом?pb.wtf



08-12-2013 19:26 АлисА - сборник клипов Скачать торрент  

Тонио писал(а):

Алиса круто, но почему одним файлом?

так был записан dvd дискpb.wtf



09-12-2013 05:03 АлисА - сборник клипов Скачать торрент  

вспомним юность, спасибоpb.wtf



12-07-2015 06:32 АлисА - сборник клипов Скачать торрент  

Алиса - браво! Рок-н-ролл крест :) Спасибо :)pb.wtf



    Дорогой пользователь! Огромная просьба, поблагодарите релизера, оцените раздачу и оставьте свои комментарий, если Вы скачали АлисА - сборник клипов через торрент бесплатно! Внесите свою лепту в развитие PiratBit!
    Комментировать посты могут только пользователи прошедшие не сложную регистрацию
    Показать сообщения:    

    АлисА - сборник клипов через торрент
    Скачать бесплатно АлисА - сборник клипов
    АлисА - сборник клипов скачать торрент
    АлисА - сборник клипов смотреть онлайн
    Cкачать фильм АлисА - сборник клипов бесплатно
    АлисА - сборник клипов скачать торрент в хорошем качестве
    АлисА - сборник клипов смотреть онлайн бесплатно в хорошем качестве


    Вы не можете начинать темы
    Вы не можете отвечать на сообщения
    Вы не можете редактировать свои сообщения
    Вы не можете удалять свои сообщения
    Вы не можете голосовать в опросах
    Вы не можете прикреплять файлы к сообщениям
    Вы можете скачивать файлы