2 сезон

iTunes

MVO

1

2 сезон

iTunes

iTunes

1 сезон

RePack

30

Новинка

ВАЖНО

ИГРА 18+

pack

RePack

MK11
pack

Легкие деньги

RePack

jed

RePack

fifa19

RePack

RDR2

RePack

NEED FOR SPEED™ PAYBACK

4 сезон

9 сезон

Бесстыжие 9 сезон

Все сериалы

все сериалы на PB.wtf

RePack

FAR CRY 5

Anonymous, доброй ночи, мы не успеваем собрать деньги на оплату серверов за декабрь и январь, помогите нам пожалуйста в это трудное время. В качестве благодарности мы отключим Вам всю рекламу на сайте (укажите свой ник в строку Ваше имя)!

×
  
Magnet ссылка

Мачете убивает / Machete Kills (Роберт Родригес / Robert Rodriguez) [ 2013 , США, Россия , боевик, комедия , HDRip., Дубляж, Лицензия] pb.wtf

Мачете убивает через торрент pb.wtf

Размер: 2.05 GB | Добавлен: 7 лет 1 мес. назад | Торрент скачан:841 раз
Скачать  

09-12-2013 04:51 Мачете убивает Скачать торрент  

Мачете убивает / Machete KillsГод выпуска: 2013
Страна: США, Россия
Жанр: боевик, комедия

Продолжительность: 01:47:59
Перевод: Дубляж, Лицензия
Режиссер: Роберт Родригес / Robert Rodriguez
В ролях: Дэнни Трехо (Machete), Мишель Родригес (Luz), Эмбер Хёрд (Miss San Antonio), Демиан Бишир (Mendez), Мэл Гибсон (Voz), София Вергара (Desdemona), Чарли Шин (Mr. President), Леди Гага (La CamaleГіn), Алекса Вега (KillJoy), Антонио Бандерас (El CamaleГіn 4), Кьюба Гудинг мл. (El CamaleГіn 2), Джессика Альба (Sartana, в титрах не указана)
Описание: Правительство США вербует Мачете для миссии, которую не под силу выполнить простому смертному. Мачете прорывается в Мексику, чтобы схватить безумного лидера карательного отряда и эксцентричного миллиардера, торгующего оружием, который, в свою очередь, лелеет мечту начать войну планетарного масштаба и запустить смертельно опасное оружие в космос. И только Мачете может предотвратить этот глобальный хаос.
Рейтинг
kinopoisk.ru: 6.102 (8435)
imdb.com: 5.90 (14 087)
MPAA: R - Лицам до 17 лет обязательно присутствие взрослого
Качество: HDRip
Формат: AVI
Видео кодек: XviD
Аудио кодек: AC3
Видео: XviD, 720x384 (1.875), 1933 kbps, 24 fps, 0,291 bpp
Аудио №1: AC3 / 5.1 / 48 kHz / 448 kbps / 16 bit(rus)
Аудио №2: AC3 / 2.0 / 48 kHz / 320 kbps / 16 bit

General
Complete name : D:Machete.ubivaet.2013.D.HDRip.2100Mb.avi
Format : AVI
Format/Info : Audio Video Interleave
Format profile : OpenDML
File size : 2.05 GiB
Duration : 1h 47mn
Overall bit rate : 2 720 Kbps
Writing application : VirtualDubMod 1.5.10.3 (build 2550/release)
Writing library : VirtualDubMod build 2550/release

Video
ID : 0
Format : MPEG-4 Visual
Format profile : Advanced Simple@L5
Format settings, BVOP : 2
Format settings, QPel : No
Format settings, GMC : No warppoints
Format settings, Matrix : Custom
Codec ID : XVID
Codec ID/Hint : XviD
Duration : 1h 47mn
Bit rate : 1 934 Kbps
Width : 720 pixels
Height : 384 pixels
Display aspect ratio : 1.875
Frame rate : 24.000 fps
Color space : YUV
Chroma subsampling : 4:2:0
Bit depth : 8 bits
Scan type : Progressive
Compression mode : Lossy
Bits/(Pixel*Frame) : 0.291
Stream size : 1.46 GiB (71%)
Writing library : XviD 1.2.1 (UTC 2008-12-04)

Audio #1
ID : 1
Format : AC-3
Format/Info : Audio Coding 3
Mode extension : CM (complete main)
Codec ID : 2000
Duration : 1h 47mn
Bit rate mode : Constant
Bit rate : 448 Kbps
Channel(s) : 6 channels
Channel positions : Front: L C R, Side: L R, LFE
Sampling rate : 48.0 KHz
Bit depth : 16 bits
Compression mode : Lossy
Stream size : 346 MiB (16%)
Alignment : Split accross interleaves
Interleave, duration : 42 ms (1.00 video frame)
Interleave, preload duration : 500 ms

Audio #2
ID : 2
Format : AC-3
Format/Info : Audio Coding 3
Mode extension : CM (complete main)
Codec ID : 2000
Duration : 1h 47mn
Bit rate mode : Constant
Bit rate : 320 Kbps
Channel(s) : 2 channels
Channel positions : Front: L R
Sampling rate : 48.0 KHz
Bit depth : 16 bits
Compression mode : Lossy
Stream size : 247 MiB (12%)
Alignment : Split accross interleaves
Interleave, duration : 42 ms (1.00 video frame)
Interleave, preload duration : 500 ms
pb.wtf



Скачать Мачете убивает через торрент http://i6.imageban.ru/out/2013/12/09/28bdda9fb07a3bccf96a5c556a7ad8f6.png Скачать фильм Мачете убивает через торрент бесплантно в хорошем качестве Описание: Правительство США вербует Мачете для миссии, которую не под силу выполнить простому смертному. Мачете прорывается в Мексику, ... 9.8 10 29
Info! Золотая раздача, скачанное не засчитывается.
Торрент: Зарегистрирован [2013-12-09 04:51] · скачан: 841 раз
Статус: √ проверено
Размер: 2.05 GB
Как cкачать? Как скачать Мачете убивает через торрент | UTorrent

% Раздел Тема Автор DL S | L
Фильмы [HD 720p, 1080p] (Хороший звук DUB, MVO) [ 5.75 GB ] Мачете убивает / Machete Kills [2013 BDRip-HEVC 1080p] DUB + AVO | US Transfer RealOldGamer Скачать
2 | 0
Фильмы с авторской озвучкой [ 2.19 GB ] Мачете убивает / Machete Kills [2013 HDRip] 2x[AVO] killermax2013 Скачать
1 | 0
Фильмы (Blu-ray, BD-Remux, HDDVD) [ 23.29 GB ] Мачете убивает / Machete Kills [2013 BD-Remux USA Transfer ] Seedtank Скачать
1 | 0
Фильмы (Blu-ray, BD-Remux, HDDVD) [ 32.25 GB ] Мачете убивает / Machete Kills [2013 Россия BDRemux 1080p] [US Transfer] Dub + VO + Original + Subs Ворон Скачать
1 | 0
Фильмы 2013 [DVDrip, WEB-DLRip, HDrip] [ 1.37 GB ] Мачете убивает / Machete Kills [ 2013 Россия HDRip ] МАКС1 Скачать
1 | 0
Фильмы 2013 [DVDrip, WEB-DLRip, HDrip] [ 2.26 GB ] Мачете убивает / Machete Kills [2013 BDRip-AVC] [US-Transfer] Dub + Original + Sub potroks Скачать
1 | 0
Фильмы (Blu-ray, BD-Remux, HDDVD) [ 22.62 GB ] Мачете убивает / Machete Kills [2013 Blu-ray ] Pavlin Скачать
1 | 0


Последний раз редактировалось: МАКС1 (2013-12-09 20:14), всего редактировалось 1 раз

28-11-2019 20:33  

Отключить всю рекламу на сайте

09-12-2013 08:26 Мачете убивает Скачать торрент  

Ребя От гоблина киньте фильмец,ну очень поржать охота)))pb.wtf



17-12-2013 12:31 Мачете убивает Скачать торрент  

мачете опечалилpb.wtf



18-12-2013 10:12 Мачете убивает Скачать торрент  

Да!? Мх... Чувствую следующюю часть смотреть точно никто не будет nopb.wtf



    Дорогой пользователь! Огромная просьба, поблагодарите релизера, оцените раздачу и оставьте свои комментарий, если Вы скачали Мачете убивает через торрент бесплатно! Внесите свою лепту в развитие PiratBit!
    Комментировать посты могут только пользователи прошедшие не сложную регистрацию
    Показать сообщения:    

    Мачете убивает через торрент
    Скачать бесплатно Мачете убивает
    Мачете убивает скачать торрент
    Мачете убивает смотреть онлайн
    Cкачать фильм Мачете убивает бесплатно
    Мачете убивает скачать торрент в хорошем качестве
    Мачете убивает смотреть онлайн бесплатно в хорошем качестве


    Вы не можете начинать темы
    Вы не можете отвечать на сообщения
    Вы не можете редактировать свои сообщения
    Вы не можете удалять свои сообщения
    Вы не можете голосовать в опросах
    Вы не можете прикреплять файлы к сообщениям
    Вы можете скачивать файлы