Ссылка на приватное зеркало всего за 1$. Внимание количество ограничено!!!

iTunes

iTunes

iTunes

1

iTunes

iTunes

iTunes

iTunes

iTunes

30
pack

$ от Little Big

ВАЖНО

!!Акция!!

Alien_RageХит недели

RePack

Resident Evil 21

ИГРА 18+

pack

RePack

jed

!!Акция!!

Alien_Rage

RePack

fifa19

RePack

Assassins Creed: Odyssey

RePack

NEED FOR SPEED™ PAYBACK

4 сезон

9 сезон

Бесстыжие 9 сезон

Все сериалы

все сериалы на PB.wtf

RePack

FAR CRY 5
  

Проделки в колледже / Charlie Bartlett (Джон Полл / Jon Poll) [2007, США, драма, комедия, HDTVRip 720p] Dub + DVO [НТВ+] + UKR + Original + Subs pb.wtf

Проделки в колледже через торрент pb.wtf

Размер: 6.9 GB | Добавлен: 6 лет 7 мес. назад | Торрент скачан:96 раз
Скачать  

09-12-2013 19:08 Проделки в колледже Скачать торрент  

Проделки в колледже / Charlie Bartlett
«Popularity is a state of mind»
Год выпуска: 2007
Страна: США
Жанр: драма, мелодрама, комедия
Продолжительность: 01:36:53
Перевод:
|Профессиональный (полное дублирование), |
|Профессиональный (двухголосый закадровый), НТВ+|
Субтитры: русские, английские,
Режиссер: Джон Полл / Jon Poll
В ролях: Антон Ельчин (Charlie Bartlett), Роберт Дауни мл. (Nathan Gardner), Хоуп Дэвис (Marilyn Bartlett), Кэт Деннингс (Susan Gardner), Тайлер Хилтон (Murphy Bivens), Марк Рендалл (Kip Crombwell), Дилан Тейлор (Len Arbuckle), Меган Парк (Whitney Drummond), Джэйк Эпштейн (Dustin Lauderbach), Джонатан Мэйлен (Jordan Sunder), Дерек МакГрат (Superintendent Sedgwick), Стивен Янг (Dr. Stan Weathers)
Описание:
Сына богатеньких родителей Чарли Бартлетта к его совершеннолетию выгнали из всех элитных школ города. Очень уж своеобразное у юноши чувство юмора. Отчаявшаяся мать пристраивает своего саркастичного сынка в обычную школу.
Как это ни странно, но здесь Чарли ведёт себя как прилежный ученик и верный товарищ, направо и налево раздающий бесплатные дельные советы. Только спустя какое-то время учителя школы начинают замечать, что с их учениками начинают происходить неожиданные изменения...
Рейтинг
kinopoisk.ru: 6.787 (9069)
imdb.com: 7.00 (40 501)
MPAA: R - Лицам до 17 лет обязательно присутствие взрослого

Качество: HDTVRip 720p
Формат: MKV
Видео кодек: AVC
Аудио кодек: AC3
Видео: AVC, 1280x692 (1.850), 8717 kbps, 23,976 fps, 0,411 bpp
Аудио №1: русский / AC3 / 5.1 / 48 kHz / 448 kbps / 16 bit |Дубляж|
Аудио №2: русский / AC3 / 2.0 / 48 kHz / 192 kbps / 16 bit |DVO НТВ+|
Аудио №3: украинский / AC3 / 1 / 48 kHz / 96 kbps / 16 bit |украинский|Профессиональный (многоголосый, закадровый)|
Аудио №4: английский / AC3 / 5.1 / 48 kHz / 448 kbps / 16 bit |Original|
Аудио №5: английский / AC3 / 2.0 / 48 kHz / 96 kbps / 16 bit | Комментарии режисcера Джона Полла, Антона Ельчина и Кэт Деннингс|

Оформление: Messa-fan
General
Unique ID : 186196902456364127934111389784479229826 (0x8C14381056539F6780DCE00D0BB5E782)
Complete name : Charlie.Bartlett.2007.720p.HDTV.2xRus.Ukr.2xEng.mkv
Format : Matroska
Format version : Version 2
File size : 6.90 GiB
Duration : 1h 36mn
Overall bit rate : 10.2 Mbps
Encoded date : UTC 2012-06-08 05:28:40
Writing application : mkvmerge v5.5.0 ('Healer') built on Apr 6 2012 21:43:24
Writing library : libebml v1.2.3 + libmatroska v1.3.0

Video
ID : 1
Format : AVC
Format/Info : Advanced Video Codec
Format profile : High@L4.1
Format settings, CABAC : Yes
Format settings, ReFrames : 9 frames
Codec ID : V_MPEG4/ISO/AVC
Duration : 1h 36mn
Bit rate : 8 718 Kbps
Width : 1 280 pixels
Height : 692 pixels
Display aspect ratio : 1.850
Frame rate : 23.976 fps
Color space : YUV
Chroma subsampling : 4:2:0
Bit depth : 8 bits
Scan type : Progressive
Bits/(Pixel*Frame) : 0.411
Stream size : 5.90 GiB (85%)
Title : Charlie Bartlett (2007)
Writing library : x264 core 124 r2197 69a0443
Encoding settings : cabac=1 / ref=9 / deblock=1:-3:-3 / analyse=0x3:0x113 / me=tesa / subme=11 / psy=1 / psy_rd=1.25:0.00 / mixed_ref=1 / me_range=16 / chroma_me=1 / trellis=2 / 8x8dct=1 / cqm=0 / deadzone=21,11 / fast_pskip=0 / chroma_qp_offset=-2 / threads=12 / sliced_threads=0 / nr=0 / decimate=0 / interlaced=0 / bluray_compat=0 / constrained_intra=0 / bframes=7 / b_pyramid=2 / b_adapt=2 / b_bias=0 / direct=3 / weightb=1 / open_gop=0 / weightp=2 / keyint=250 / keyint_min=23 / scenecut=40 / intra_refresh=0 / rc=crf / mbtree=0 / crf=17.4 / qcomp=0.70 / qpmin=0 / qpmax=69 / qpstep=4 / ip_ratio=1.40 / pb_ratio=1.30 / aq=1:0.64
Language : English
Default : Yes
Forced : No

Audio #1
ID : 2
Format : AC-3
Format/Info : Audio Coding 3
Mode extension : CM (complete main)
Codec ID : A_AC3
Duration : 1h 36mn
Bit rate mode : Constant
Bit rate : 448 Kbps
Channel(s) : 6 channels
Channel positions : Front: L C R, Side: L R, LFE
Sampling rate : 48.0 KHz
Bit depth : 16 bits
Compression mode : Lossy
Stream size : 310 MiB (4%)
Title : Дубляж
Language : Russian
Default : Yes
Forced : No

Audio #2
ID : 3
Format : AC-3
Format/Info : Audio Coding 3
Mode extension : CM (complete main)
Codec ID : A_AC3
Duration : 1h 36mn
Bit rate mode : Constant
Bit rate : 192 Kbps
Channel(s) : 2 channels
Channel positions : Front: L R
Sampling rate : 48.0 KHz
Bit depth : 16 bits
Compression mode : Lossy
Stream size : 133 MiB (2%)
Title : Двухголосый закадровый - НТВ+
Language : Russian
Default : No
Forced : No

Audio #3
ID : 4
Format : AC-3
Format/Info : Audio Coding 3
Mode extension : CM (complete main)
Codec ID : A_AC3
Duration : 1h 36mn
Bit rate mode : Constant
Bit rate : 96.0 Kbps
Channel(s) : 1 channel
Channel positions : Front: C
Sampling rate : 48.0 KHz
Bit depth : 16 bits
Compression mode : Lossy
Stream size : 66.5 MiB (1%)
Title : Многоголосый закадровый - Новый Канал
Language : Ukrainian
Default : No
Forced : No

Audio #4
ID : 5
Format : AC-3
Format/Info : Audio Coding 3
Mode extension : CM (complete main)
Codec ID : A_AC3
Duration : 1h 36mn
Bit rate mode : Constant
Bit rate : 448 Kbps
Channel(s) : 6 channels
Channel positions : Front: L C R, Side: L R, LFE
Sampling rate : 48.0 KHz
Bit depth : 16 bits
Compression mode : Lossy
Stream size : 310 MiB (4%)
Title : Оригинал
Language : English
Default : No
Forced : No

Audio #5
ID : 6
Format : AC-3
Format/Info : Audio Coding 3
Mode extension : CM (complete main)
Codec ID : A_AC3
Duration : 1h 36mn
Bit rate mode : Constant
Bit rate : 96.0 Kbps
Channel(s) : 2 channels
Channel positions : Front: L R
Sampling rate : 48.0 KHz
Bit depth : 16 bits
Compression mode : Lossy
Stream size : 66.5 MiB (1%)
Title : Комментарии режисcера Джона Полла, Антона Ельчина и Кэт Деннингс
Language : English
Default : No
Forced : No

Text #1
ID : 7
Format : UTF-8
Codec ID : S_TEXT/UTF8
Codec ID/Info : UTF-8 Plain Text
Language : Russian
Default : No
Forced : No

Text #2
ID : 8
Format : UTF-8
Codec ID : S_TEXT/UTF8
Codec ID/Info : UTF-8 Plain Text
Language : English
Default : No
Forced : No

Menu
00:00:00.000 : en:Not Again! (Main Titles)
00:05:09.467 : en:The Principal
00:06:47.615 : en:First Day
00:08:51.197 : en:Rhetorical Question
00:11:28.646 : en:Auditions
00:13:34.897 : en:The Fantasy
00:16:08.759 : en:Word Of The Day
00:19:13.276 : en:New Medication
00:23:23.067 : en:Business Partners
00:26:52.818 : en:Most Popular
00:30:01.673 : en:Phychological Disorders
00:34:29.190 : en:Lemonade Stand
00:37:19.694 : en:Entrepreneurs
00:40:28.341 : en:Mom And Dad
00:45:35.397 : en:Visiting Day
00:47:05.904 : en:Distant Second
00:52:05.328 : en:A Teenager's Duty
00:55:33.619 : en:A Virgin No More
01:00:13.190 : en:Defying Gravity
01:04:32.199 : en:The Big Picture
01:08:48.329 : en:A Real Date
01:12:12.867 : en:Student Protest
01:15:08.500 : en:In The Bag
01:17:49.244 : en:Riot!
01:21:11.154 : en:Taking The Blame
01:23:55.526 : en:Just A Kid
01:29:50.339 : en:Sing Out
01:33:18.213 : en:End Titles



pb.wtf



Скачать Проделки в колледже через торрент http://i58.fastpic.ru/big/2013/1209/44/c8ef50e14c0abaa4027bad16caedf144.jpg Скачать фильм Проделки в колледже через торрент бесплантно в хорошем качестве Описание: Сына богатеньких родителей Чарли Бартлетта к его совершеннолетию выгнали из всех элитных школ города. Очень уж своеобразное у ... 8.9 10 8
Info! Золотая раздача, скачанное не засчитывается.
Торрент: Зарегистрирован [2013-12-09 19:08] · скачан: 96 раз
Статус: √ проверено
Размер: 6.9 GB
Как cкачать? Как скачать Проделки в колледже через торрент | qTorrent

28-11-2019 20:33  

Отключить всю рекламу на сайте

    Дорогой пользователь! Огромная просьба, поблагодарите релизера, оцените раздачу и оставьте свои комментарий, если Вы скачали Проделки в колледже через торрент бесплатно! Внесите свою лепту в развитие PiratBit!
    Комментировать посты могут только пользователи прошедшие не сложную регистрацию
    Показать сообщения:    

    Проделки в колледже через торрент
    Скачать бесплатно Проделки в колледже
    Проделки в колледже скачать торрент
    Проделки в колледже смотреть онлайн
    Cкачать фильм Проделки в колледже бесплатно
    Проделки в колледже скачать торрент в хорошем качестве
    Проделки в колледже смотреть онлайн бесплатно в хорошем качестве


    Вы не можете начинать темы
    Вы не можете отвечать на сообщения
    Вы не можете редактировать свои сообщения
    Вы не можете удалять свои сообщения
    Вы не можете голосовать в опросах
    Вы не можете прикреплять файлы к сообщениям
    Вы можете скачивать файлы