Присоединяйтесь к нам в Telegram!, здесь всегда актуальный адрес сайта, оперативная поддержка и многое другое!!

>

5.9

iTunes

7.4

iTunes

9.4

1 сезон

1

7.4

2 сезон

7.2

iTunes

7.3

1 сезон

13

6.1

iTunes

8.3

Пиратка

30

ULTIMATE

pack

9.9

Лицензия

ВАЖНО

ИГРА 18+

pack

7.3

RePack

MK11

7.7

RePack

jed

7.8

RePack

fifa19

8.5

RePack

RDR2

RePack

NEED FOR SPEED™ PAYBACK

5 сезон

9 сезон

Бесстыжие 9 сезон

Все сериалы

все сериалы на PB.wtf

RePack

FAR CRY 5

Anonymous, добрый день, мы катастрофически не успеваем собрать деньги на оплату серверов, помогите нам пожалуйста 5,10,15р., для нас важна любая помощь . В качестве благодарности мы отключим Вам всю рекламу на сайте (укажите свой ник в строку Ваше имя)!

×
  
Magnet ссылка

Modern Talking сборник видеоклипов 1985-2003 / Modern Talking- Live Collection 1985-2003 vol.1.2.3.4 [2009 г., Поп, Евро-диско, Евро-поп, TVRip] pb.wtf

Modern Talking сборник видеоклипов 1985-2003 через торрент pb.wtf

Размер: 6.72 GB | Добавлен: 7 лет 11 мес. назад | Торрент скачан:421 раз
Смотреть онлайн Modern Talking сборник видеоклипов 1985-2003 | Скачать    Ребята, помогите собрать деньги на оплату серверов!!!

09-12-2013 19:19 Modern Talking сборник видеоклипов 1985-2003 Скачать торрент  

Modern Talking сборник видеоклипов 1985-2003
Год выпуска: 2009
Страна: Germany
Жанр: Поп, Евро-диско, Евро-поп
Продолжительность: 01:19:35 + 01:10:34 + 01:03:38 + 01:17:34
Перевод: Оригинал

В ролях: Томас Андерс и Дитер Болен

Описание: Modern Talking (Моден Токин) — немецкий англоязычный музыкальный дуэт исполнявший танцевальную музыку в стиле диско, состоявший из Томаса Андерса и Дитера Болена. В конце своего существования дуэт развился в до сих пор коммерчески самую успешную немецкую поп-формацию. Образован в 1984 г.
За время существования группы было продано более 120 миллионов звуковых носителей по всему миру.
Диск первый:
You're My Heart, You're My Soul (A Live Perfomance On Top Of The Pops 1985)
You Can Win if You Want (Musikhall 1985)
There's Too Much Blue In Missing You (Musikhall 1985)
You're My Heart, You're My Soul + Сhery, Chery Lady (Peter`s Pop Show 1985)
Heaven Will Know (Peter`s Pop Show 1985)
Lucky GuyModern (Live Tocata Show - Spain 1984)
Brother Louie
Atlantis Is Calling (S.O.S. for Love)
Keep Love Alive
Geronimos Cadillac (Peter`s Pop Show 1986)
Give Me Peace On Earth (Peter`s Pop Show 1986)
Jet Airliner
Сhery, Chery Lady
Geronimos Cadillac
Atlantis Is Calling (S.O.S. for Love)
You're My Heart, You're My Soul
Brother Louie

Диск второй:
You're My Heart,You're My Soul
You Can Win if You Want
Cheri Cheri Lady
Brother Louie
Atlantis Is Calling
Promovideo
With A Little Love
The Night Is Yours The Night Is Mine
You're My Heart,You're My Soul
We Still Have Dreams
You're My Heart,You're My Soul
Brother Louie
Jet Airline
You're My Heart,You're My Soul
Geronimos Cadillac

Диск третий:
Ready For The Victory
Win the race
TV Makes The Superstar
Sexy Sexy Lover
No Face No Name No Number
You're My Heart, You're My Soul
Juliet
Last Exit To Brooklyn
You Are Not Alone
DONT MAKE MY BLUE
TV Makes The Superstar
You're My Heart, You're My Soul
Sexy Sexy Lover
You Are Not Alone
China In Her Eyes
No Face No Name No Number
You're My Heart, You're My Soul
Heaven will know

Диск четвертый:
1- TV Makes The Superstar
2- Brother Louie
3- Hit Medley
4- Win The Race
5- You're My Heart, You're My Soul
6- You Are Not Alone
7- Geronimo's Cadillac
8- TV Makes The Superstar
9- Juliet
10- Brother Louie
11- You're My Heart, You're My Soul
12- Win The Race
13- China In Her Eyes(s)
14- Don't Take Away My Heart(s)
15- I Will Follow You(s)
16- Brother Louie(s)
17- You're My Heart, You're My Soul(s)
Bonus 18- Thomas Anders- You & Me(s)
Качество: TVRip
Формат: AVI
Видео кодек: XviD
Аудио кодек: MPEG Audio
Видео: Xvid 608x464, 25.00fps, 2 228 Kbps
Аудио: MPEG Audio 48000Hz stereo 224kbps

Видео: Xvid 656x496, 25.00fps, 3 839 Kbps
Аудио: MPEG Audio 48000Hz stereo 224kbps

Видео: Xvid 576x432, 25.00fps, 2 845 Kbps
Аудио: MPEG Audio 48000Hz stereo, 224kbps

Видео: Xvid 704x528, 25.00fps, 3 446 Kbps
Аудио: MPEG Audio 48000Hz stereo, 224kbps

Релиз от: lug 30





General
Complete name : F:modern1 клипы.avi
Format : AVI
Format/Info : Audio Video Interleave
File size : 1.37 GiB
Duration : 1h 19mn
Overall bit rate : 2 460 Kbps
Writing application : VirtualDubMod 1.5.4.1 (build 2178/release)
Writing library : VirtualDubMod build 2178/release

Video
ID : 0
Format : MPEG-4 Visual
Format profile : Advanced Simple@L5
Format settings, BVOP : 1
Format settings, QPel : No
Format settings, GMC : No warppoints
Format settings, Matrix : Custom
Codec ID : XVID
Codec ID/Hint : XviD
Duration : 1h 19mn
Bit rate : 2 228 Kbps
Width : 608 pixels
Height : 464 pixels
Display aspect ratio : 4:3
Frame rate : 25.000 fps
Color space : YUV
Chroma subsampling : 4:2:0
Bit depth : 8 bits
Scan type : Progressive
Compression mode : Lossy
Bits/(Pixel*Frame) : 0.316
Stream size : 1.24 GiB (91%)
Writing library : XviD 1.2.1 (UTC 2008-12-04)

Audio
ID : 1
Format : MPEG Audio
Format version : Version 1
Format profile : Layer 2
Codec ID : 50
Duration : 1h 19mn
Bit rate mode : Constant
Bit rate : 224 Kbps
Channel(s) : 2 channels
Sampling rate : 48.0 KHz
Compression mode : Lossy
Stream size : 128 MiB (9%)
Alignment : Aligned on interleaves
Interleave, duration : 80 ms (2.00 video frames)
Interleave, preload duration : 504 ms
Language : English

General
Complete name : F:modernmodern-talking-live-collection-vol2.avi
Format : AVI
Format/Info : Audio Video Interleave
Format profile : OpenDML
File size : 1.99 GiB
Duration : 1h 10mn
Overall bit rate : 4 073 Kbps
Writing application : VirtualDubMod 1.5.4.1 (build 2178/release)
Writing library : VirtualDubMod build 2178/release

Video
ID : 0
Format : MPEG-4 Visual
Format profile : Advanced Simple@L5
Format settings, BVOP : 1
Format settings, QPel : No
Format settings, GMC : No warppoints
Format settings, Matrix : Custom
Codec ID : XVID
Codec ID/Hint : XviD
Duration : 1h 10mn
Bit rate : 3 839 Kbps
Width : 656 pixels
Height : 496 pixels
Display aspect ratio : 4:3
Frame rate : 25.000 fps
Color space : YUV
Chroma subsampling : 4:2:0
Bit depth : 8 bits
Scan type : Progressive
Compression mode : Lossy
Bits/(Pixel*Frame) : 0.472
Stream size : 1.88 GiB (94%)
Writing library : XviD 1.2.1 (UTC 2008-12-04)

Audio
ID : 1
Format : MPEG Audio
Format version : Version 1
Format profile : Layer 2
Codec ID : 50
Duration : 1h 10mn
Bit rate mode : Constant
Bit rate : 224 Kbps
Channel(s) : 2 channels
Sampling rate : 48.0 KHz
Compression mode : Lossy
Stream size : 112 MiB (5%)
Alignment : Aligned on interleaves
Interleave, duration : 80 ms (2.00 video frames)
Interleave, preload duration : 504 ms
Language : English

General
Complete name : F:modernmodern-talking-live-collection-vol.avi
Format : AVI
Format/Info : Audio Video Interleave
File size : 1.37 GiB
Duration : 1h 3mn
Overall bit rate : 3 076 Kbps
Writing application : VirtualDubMod 1.5.4.1 (build 2178/release)
Writing library : VirtualDubMod build 2178/release

Video
ID : 0
Format : MPEG-4 Visual
Format profile : Advanced Simple@L5
Format settings, BVOP : 1
Format settings, QPel : No
Format settings, GMC : No warppoints
Format settings, Matrix : Custom
Codec ID : XVID
Codec ID/Hint : XviD
Duration : 1h 3mn
Bit rate : 2 845 Kbps
Width : 576 pixels
Height : 432 pixels
Display aspect ratio : 4:3
Frame rate : 25.000 fps
Color space : YUV
Chroma subsampling : 4:2:0
Bit depth : 8 bits
Scan type : Progressive
Compression mode : Lossy
Bits/(Pixel*Frame) : 0.457
Stream size : 1.26 GiB (92%)
Writing library : XviD 1.2.1 (UTC 2008-12-04)

Audio
ID : 1
Format : MPEG Audio
Format version : Version 1
Format profile : Layer 2
Codec ID : 50
Duration : 1h 3mn
Bit rate mode : Constant
Bit rate : 224 Kbps
Channel(s) : 2 channels
Sampling rate : 48.0 KHz
Compression mode : Lossy
Stream size : 102 MiB (7%)
Alignment : Aligned on interleaves
Interleave, duration : 80 ms (2.00 video frames)
Interleave, preload duration : 504 ms

General
Complete name : F:modernMT-2.avi
Format : AVI
Format/Info : Audio Video Interleave
Format profile : OpenDML
File size : 1.99 GiB
Duration : 1h 17mn
Overall bit rate : 3 679 Kbps
Writing application : VirtualDubMod 1.5.4.1 (build 2178/release)
Writing library : VirtualDubMod build 2178/release

Video
ID : 0
Format : MPEG-4 Visual
Format profile : Advanced Simple@L5
Format settings, BVOP : 1
Format settings, QPel : No
Format settings, GMC : No warppoints
Format settings, Matrix : Custom
Codec ID : XVID
Codec ID/Hint : XviD
Duration : 1h 17mn
Bit rate : 3 446 Kbps
Width : 704 pixels
Height : 528 pixels
Display aspect ratio : 4:3
Frame rate : 25.000 fps
Color space : YUV
Chroma subsampling : 4:2:0
Bit depth : 8 bits
Scan type : Progressive
Compression mode : Lossy
Bits/(Pixel*Frame) : 0.371
Stream size : 1.87 GiB (94%)
Writing library : XviD 1.2.1 (UTC 2008-12-04)

Audio
ID : 1
Format : MPEG Audio
Format version : Version 1
Format profile : Layer 2
Codec ID : 50
Duration : 1h 17mn
Bit rate mode : Constant
Bit rate : 224 Kbps
Channel(s) : 2 channels
Sampling rate : 48.0 KHz
Compression mode : Lossy
Stream size : 124 MiB (6%)
Alignment : Aligned on interleaves
Interleave, duration : 80 ms (2.00 video frames)
Interleave, preload duration : 504 ms
Language : English
pb.wtf



Скачать Modern Talking сборник видеоклипов 1985-2003 через торрент https://pic1.kartinco.top/images/61/4qv6l.jpg Скачать, смотреть онлайн Modern Talking сборник видеоклипов 1985-2003 бесплантно в хорошем качестве Описание: Modern Talking (Моден Токин) — немецкий англоязычный музыкальный дуэт исполнявший танцевальную музыку в стиле диско, состоявший ... 9.2 10 18
Info! Золотая раздача, скачанное не засчитывается.
Торрент: Зарегистрирован [2013-12-09 19:19] · скачан: 421 раз
Статус: √ проверено
Размер: 6.72 GB
Как cкачать? Как скачать Modern Talking сборник видеоклипов 1985-2003 через торрент | UTorrent

28-11-2019 20:33  

Отключить всю рекламу на сайте

    Дорогой пользователь! Огромная просьба, поблагодарите релизера, оцените раздачу и оставьте свои комментарий, если Вы скачали Modern Talking сборник видеоклипов 1985-2003 через торрент бесплатно!
    Комментировать посты могут только пользователи прошедшие не сложную регистрацию
    Показать сообщения:    

    Modern Talking сборник видеоклипов 1985-2003 через торрент
    Скачать бесплатно Modern Talking сборник видеоклипов 1985-2003
    Modern Talking сборник видеоклипов 1985-2003 скачать торрент
    Modern Talking сборник видеоклипов 1985-2003 смотреть онлайн
    Cкачать фильм Modern Talking сборник видеоклипов 1985-2003 бесплатно
    Modern Talking сборник видеоклипов 1985-2003 скачать торрент в хорошем качестве
    Modern Talking сборник видеоклипов 1985-2003 смотреть онлайн бесплатно в хорошем качестве


    Вы не можете начинать темы
    Вы не можете отвечать на сообщения
    Вы не можете редактировать свои сообщения
    Вы не можете удалять свои сообщения
    Вы не можете голосовать в опросах
    Вы не можете прикреплять файлы к сообщениям
    Вы можете скачивать файлы