Всегда рабочее зеркало без VPN и Proxy просто перед .vidak.icu напиши любое слово или цифру, Пример http://gm7m.vidak.icu

MVO

2 сезон

1 сезон

1

1 сезон

iTunes

2 сезон

13

1 сезон

Deluxe

pack

Рекомендуем

Пиратка

30

ВАЖНО

RePack

MK11

RePack

jed

RePack

fifa19

RePack

RDR2

RePack

NEED FOR SPEED™ PAYBACK

Кинопоиск HD

6 сезон

 Острые козырьки 6 сезон

Все сериалы

все сериалы на PB.wtf

RePack

FAR CRY 5

Anonymous, нам критически не хватает 5601 руб. на оплату серверов и переферии за Апрель, помоги нам пожалуйста, вся надежда только на тебя. В благодарность мы отключим тебе всю рекламу на сайте!

×
  
Magnet ссылка

Побег из тюрьмы / Prison Break / Сезон: 3 / Серии: 1-13 (13) (Пол Шеринг / Paul Scheuring) [2007, Боевик, Драма, HDRip] MVO (С.Р.И.) pb.wtf

Побег из тюрьмы через торрент pb.wtf

Размер: 4.41 GB | Добавлен: 8 лет 5 мес. назад | Торрент скачан:655 раз
Смотреть онлайн Побег из тюрьмы | Скачать    Ребята, помогите собрать деньги на оплату серверов!!!

09-12-2013 22:00 Побег из тюрьмы Скачать торрент  

Побег из тюрьмы / Prison Break

«Совершить побег - не значит убежать...»

Сезон: 3 | Серий: 13 из 13

Год выпуска: 2005
Страна: США
Жанр: Боевик, Драма
Продолжительность: ~00:44:00
Перевод: Профессиональный (многоголосый, закадровый) - С.Р.И.
Русские субтитры: нет
Субтитры: отсутствуют


Режиссер: Пол Шеринг / Paul Scheuring
В ролях: Вентворт Миллер /Wentworth Miller/, Доминик Пёрселл /Dominic Purcell/, Сара Уэйн Кэллиc /Sarah Wayne Callies/, Амори Ноласко /Amaury Nolasco/, Роберт Неппер /Robert Knepper/, Рокмонд Дамбер /Rockmond Dunbar/, Уэйд Уильямс /Wade Williams/, Маршалл Олмэн /Marshall Allman/, Пол Адельштейн /Paul Adelstein/, Питер Стормаре /Peter Stormare/, Робин Танни /Robin Tunney/

Сюжет продолжает финал второго сезона в Панаме. Хотя Линкольна оправдали, Майкл был заключён в федеральную тюрьму «Сона» лицом к лицу с убийцами. Махоун, Бэгвелла и Беллика также заключили в Сону за различные преступления. «Компания» взяла в заложники Сару и Линкольна-младшего и отпустит их, если Линкольн и Майкл помогут бежать заключённому.

Качество: HDRip
Формат: AVI
Видео кодек: XviD
Видео: 656x368 (1.78:1), 23.976 fps, XviD build 50 ~980 kbps avg, 0.17 bit/pixel
Аудио: MP3 , 48 kHz, MPEG Layer 3, 2 ch, ~128.00 kbps avg
Все раздачи сериала | Сэмпл | КиноПоиск | ImDB

01. "Знакомство" / "Orientacion"
02. "Огонь и Вода" / "Fire/Water"
03. "В ожидании звонка" / "Call Waiting"
04. "Лазейка" / "Good Fences"
05. "Помехи" / "Interference"
06. "Фотофиниш" / "Photo Finish"
07. "Уходим!" / "Vamonos"
08. "Вжик! - и свободен" / "Bang & Burn"
09. "В клетке" / "Boxed In"
10. "Заживо погребённый" / "Dirt Nap"
11. "Выход — внизу" / "Under & Out"
12. "Чрез тернии" / "Hell or High Water"
13. "Мастерски справился" / "The Art of the Deal"
General
Complete name : D:FilmsСериалыPrison Break (All Seasons 1-4)Prison Break - 3 сезонPrison.Break.S03E01.avi
Format : AVI
Format/Info : Audio Video Interleave
File size : 347 MiB
Duration : 43mn 5s
Overall bit rate : 1 126 Kbps
Writing application : VirtualDubMod 1.5.10.2 (build 2540/release)
Writing library : VirtualDubMod build 2540/release

Video
ID : 0
Format : MPEG-4 Visual
Format profile : Advanced Simple@L5
Format settings, BVOP : 2
Format settings, QPel : No
Format settings, GMC : No warppoints
Format settings, Matrix : Custom
Codec ID : XVID
Codec ID/Hint : XviD
Duration : 43mn 5s
Bit rate : 989 Kbps
Width : 656 pixels
Height : 368 pixels
Display aspect ratio : 16:9
Frame rate : 23.976 fps
Color space : YUV
Chroma subsampling : 4:2:0
Bit depth : 8 bits
Scan type : Progressive
Compression mode : Lossy
Bits/(Pixel*Frame) : 0.171
Stream size : 305 MiB (88%)
Writing library : XviD 1.2.1 (UTC 2008-12-04)

Audio
ID : 1
Format : MPEG Audio
Format version : Version 1
Format profile : Layer 3
Codec ID : 55
Codec ID/Hint : MP3
Duration : 43mn 5s
Bit rate mode : Constant
Bit rate : 128 Kbps
Channel count : 2 channels
Sampling rate : 48.0 KHz
Compression mode : Lossy
Stream size : 39.5 MiB (11%)
Alignment : Aligned on interleaves
Interleave, duration : 42 ms (1.00 video frame)
Interleave, preload duration : 504 ms
Writing library : LAME3.98r
Encoding settings : -m s -V 4 -q 2 -lowpass 17 -b 128
скриншот   скриншот   скриншот   скриншот   скриншот   скриншот   скриншот   скриншот  


Не забываем говорить "Спасибо!" pb.wtf



Скачать Побег из тюрьмы через торрент http://i57.fastpic.ru/big/2013/1210/fc/29e8a8b979ea1e4c8b88e0f21a3f49fc.jpg Скачать, смотреть онлайн Побег из тюрьмы бесплантно в хорошем качестве В ролях: Вентворт Миллер /Wentworth Miller/, Доминик Пёрселл /Dominic Purcell/, Сара Уэйн Кэллиc /Sarah Wayne Callies/, Амори Ноласко ... 10 10 24
Info! Золотая раздача, скачанное не засчитывается.
Торрент: Зарегистрирован [2013-12-09 22:00] · скачан: 655 раз
Статус: √ проверено
Размер: 4.41 GB
Как cкачать? Как скачать Побег из тюрьмы через торрент | UTorrent

% Раздел Тема Автор DL S | L
Побег (Prison Break) [ 137.82 GB ] Побег из тюрьмы Сезон: 3 Серия 1-13 / Prison Break Season 3 Episode 1-13 [2007 Blu-Ray] walle Скачать
1 | 0

28-11-2019 20:33  

Отключить всю рекламу на сайте

10-11-2014 16:19 Побег из тюрьмы Скачать торрент  

Скорости, скорости, за сутки надо закачать 4 сезона.pb.wtf



30-06-2015 07:36 Побег из тюрьмы Скачать торрент  

скорости плиз!!!pb.wtf



    Дорогой пользователь! Огромная просьба, поблагодарите релизера, оцените раздачу и оставьте свои комментарий, если Вы скачали Побег из тюрьмы через торрент бесплатно!
    Комментировать посты могут только пользователи прошедшие не сложную регистрацию
    Показать сообщения:    

    Побег из тюрьмы через торрент
    Скачать бесплатно Побег из тюрьмы
    Побег из тюрьмы скачать торрент
    Побег из тюрьмы смотреть онлайн
    Cкачать фильм Побег из тюрьмы бесплатно
    Побег из тюрьмы скачать торрент в хорошем качестве
    Побег из тюрьмы смотреть онлайн бесплатно в хорошем качестве


    Вы не можете начинать темы
    Вы не можете отвечать на сообщения
    Вы не можете редактировать свои сообщения
    Вы не можете удалять свои сообщения
    Вы не можете голосовать в опросах
    Вы не можете прикреплять файлы к сообщениям
    Вы можете скачивать файлы