Доктор Стрэндж

Лицензия

Добыча

Дубляж

Уэнсдэй

1 сезон

Тор

Дубляж

В эфире

Дубляж

Там, где раки поют

MVO

Властелин колец

1 сезон

Deluxe

pack

Рекомендуем

30

Пиратка

ВАЖНО

ВАЖНО

Ghostwire

Пиратка

jed

RePack

nioh2

RePack

RDR2

RePack

NEED FOR SPEED™ PAYBACK

RePack

скачать торрент

Кинопоиск HD

Острые козырьки 6 сезон

6 сезон

FAR CRY 6

RePack

скачать торрент

Лицензия

скачать торрент

MVO

1

1 сезон

скачать торрент

1 сезон

скачать торрент

Лицензия

  

Мачете убивает / Machete Kills (Роберт Родригес) [2013 г., боевик, комедия, Blu-ray, Дубляж, Лицензия]

Мачете убивает через торрент pb.wtf

Размер: 22.62 GB | Добавлен: 8 лет 11 мес. назад | Торрент скачан:283 раза
Смотреть онлайн | Скачать   

10-12-2013 02:37 Мачете убивает Скачать торрент  

Мачете убивает / Machete Kills
Год выпуска: 2013
Страна: США, Россия
Жанр: боевик, комедия,
Продолжительность: 01:47:59
Перевод: Дубляж, Лицензия
Тип релиза: Лицензия
Субтитры: Нет

Режиссер: Роберт Родригес
Продюссер: Роберт Родригес, Рик Шварц, Сергей Беспалов, Александр Роднянский
Сценарий: Кайл Уорд, Роберт Родригес, Марсель Родригес

Бюджет: $12 000 000
Премьера в мире: 19 сентября 2013

IMDB 5.90 (14 260)


В ролях: Дэнни Трехо, Мишель Родригес, Эмбер Хёрд, Демиан Бишир, Мэл Гибсон, София Вергара, Чарли Шин, Леди Гага, Алекса Вега, Антонио Бандерас, Кьюба Гудинг мл., Джессика Альба,

Описание: Правительство США вербует Мачете для миссии, которую не под силу выполнить простому смертному. Мачете прорывается в Мексику, чтобы схватить безумного лидера карательного отряда и эксцентричного миллиардера, торгующего оружием, который, в свою очередь, лелеет мечту начать войну планетарного масштаба и запустить смертельно опасное оружие в космос. И только Мачете может предотвратить этот глобальный хаос.

Качество: Blu-ray
Формат: BDAV
Видео кодек: AVC
Аудио кодек: LPCM
Видео: MPEG-4 AVC, 23.7 Мбит/с, 1920х1080(16:9), 24.000 кадр/с
Аудио#1: Русский ( LPCM, 6 ch, 4608 Кбит/с, 48.0 КГц, 16 бит)





Общее
Идентификатор : 0 (0x0)
Полное имя : E:MACHETE_HDCLUBBDMVSTREAM�0003.m2ts
Формат : BDAV
Формат/Информация : Blu-ray Video
Размер файла : 22,3 Гбайт
Продолжительность : 1 ч. 47 м.
Режим общего битрейта : Переменный
Общий поток : 29,5 Мбит/сек
Максимальный общий битрейт : 48,0 Мбит/сек

Видео
Идентификатор : 4113 (0x1011)
Идентификатор меню : 1 (0x1)
Формат : AVC
Формат/Информация : Advanced Video Codec
Профиль формата : [email protected]
Параметр CABAC формата : Да
Параметр ReFrames формата : 4 кадра
Параметр GOP формата : M=3, N=24
Идентификатор кодека : 27
Продолжительность : 1 ч. 47 м.
Вид битрейта : Переменный
Битрейт : 23,7 Мбит/сек
Максимальный битрейт : 33,0 Мбит/сек
Ширина : 1920 пикселей
Высота : 1080 пикселей
Соотношение сторон : 16:9
Частота кадров : 24,000 кадра/сек
Стандарт вещания : NTSC
Цветовое пространство : YUV
Субдискретизация насыщенности : 4:2:0
Битовая глубина : 8 бит
Тип развёртки : Прогрессивная
Бит/(Пиксели*Кадры) : 0.477
Размер потока : 17,9 Гбайт (80%)
Основные цвета : BT.709
Характеристики трансфера : BT.709
Коэффициенты матрицы : BT.709

Аудио
Идентификатор : 4352 (0x1100)
Идентификатор меню : 1 (0x1)
Формат : PCM
Параметр Endianness формата : Big
Параметр Sign формата : Signed
Режим смешивания : Blu-ray
Идентификатор кодека : 128
Продолжительность : 1 ч. 47 м.
Вид битрейта : Постоянный
Битрейт : 4608 Кбит/сек
Каналы : 6 каналов
Расположение каналов : Front: L C R, Side: L R, LFE
Частота : 48,0 КГц
Битовая глубина : 16 бит
Размер потока : 3,48 Гбайт (16%)


Мачете убивает скачать торрент





Скачать Мачете убивает через торрент https://pic1.kartinco.top/images/61/fenor.jpg Скачать, смотреть онлайн Мачете убивает бесплантно в хорошем качестве Описание: Правительство США вербует Мачете для миссии, которую не под силу выполнить простому смертному. Мачете прорывается в Мексику, ... 9.5 10 14
Info! Золотая раздача, скачанное не засчитывается.
Торрент: Зарегистрирован [2013-12-10 02:37] · скачан: 283 раз
Статус: √ проверено
Размер: 22.62 GB
Как cкачать? Как скачать Мачете убивает через торрент | UTorrent

% Раздел Тема Автор DL S | L
Фильмы [HD 720p, 1080p] (Хороший звук DUB, MVO) [ 5.75 GB ] Мачете убивает / Machete Kills | DUB + AVO | US Transfer | 1080p RealOldGamer Скачать
1 | 0
Фильмы с авторской озвучкой [ 2.19 GB ] Мачете убивает / Machete Kills | AVO | HDRip killermax2013 Скачать
1 | 0
Фильмы (Blu-ray, BD-Remux, HDDVD) [ 23.29 GB ] Мачете убивает / Machete Kills | Лицензия | Лицензия Seedtank Скачать
1 | 0
Фильмы (Blu-ray, BD-Remux, HDDVD) [ 32.25 GB ] Мачете убивает / Machete Kills | | 1080p Ворон Скачать
1 | 0
Фильмы 2013 [DVDrip, WEB-DLRip, HDrip] [ 1.37 GB ] Мачете убивает / Machete Kills | Лицензия | HDRip, Дубляж, Лицензия МАКС1 Скачать
1 | 0
Фильмы 2013 [DVDrip, WEB-DLRip, HDrip] [ 2.26 GB ] Мачете убивает / Machete Kills | | BDRip-AVC potroks Скачать
1 | 0
Фильмы 2013 [DVDrip, WEB-DLRip, HDrip] [ 2.05 GB ] Мачете убивает / Machete Kills | Лицензия | HDRip., Дубляж, Лицензия МАКС1 Скачать
1 | 0

28-11-2019 20:33  


Отключить вcю реклaмy на сайте, в т.ч. и в плеере онлайн просмотра!

10-12-2013 03:10 Мачете убивает Скачать торрент  

Как фильм ?



10-12-2013 10:12 Мачете убивает Скачать торрент  

MesQueInClub писал(а):

Как фильм ?

а как может быть фильм снятый шизофреником? хрень полная



11-12-2013 06:11 Мачете убивает Скачать торрент  

За БД спасибо! Сам фильм смотрю только из-за Чарли Шина



14-12-2013 10:33 Мачете убивает Скачать торрент  

А звук почему не работает?



08-01-2014 14:10 Мачете убивает Скачать торрент  

Согласен. Автор, звук не работает. Ни на компе, ни на телеке:(



    Дорогой пользователь! Огромная просьба, поблагодарите релизера, оцените раздачу и оставьте свои комментарий, если Вы скачали Мачете убивает через торрент бесплатно!!
    Комментировать посты могут только пользователи прошедшие не сложную регистрацию
    Показать сообщения:    


    Мачете убивает через торрент
    Скачать бесплатно Мачете убивает
    Мачете убивает скачать торрент
    Мачете убивает смотреть онлайн
    Cкачать фильм Мачете убивает бесплатно
    Мачете убивает скачать торрент в хорошем качестве
    Мачете убивает смотреть онлайн бесплатно в хорошем качестве
    Вы не можете начинать темы
    Вы не можете отвечать на сообщения
    Вы не можете редактировать свои сообщения
    Вы не можете удалять свои сообщения
    Вы не можете голосовать в опросах
    Вы не можете прикреплять файлы к сообщениям
    Вы можете скачивать файлы
    Мачете убивает / Machete Kills [2013 г., боевик, комедия, Blu-ray, Дубляж, Лицензия] смотреть онлайн, скачать торрент picoco.icu