Присоединяйтесь к нам в Telegram!, здесь всегда актуальный адрес сайта, оперативная поддержка и многое другое!!

>

5.9

iTunes

7.4

iTunes

9.4

1 сезон

1

7.4

2 сезон

7.2

iTunes

7.3

1 сезон

13

6.1

iTunes

8.3

GOG

30

ULTIMATE

pack

9.9

Лицензия

ВАЖНО

ИГРА 18+

pack

7.3

RePack

MK11

7.7

RePack

jed

7.8

RePack

fifa19

8.5

RePack

RDR2

RePack

NEED FOR SPEED™ PAYBACK

5 сезон

9 сезон

Бесстыжие 9 сезон

Все сериалы

все сериалы на PB.wtf

RePack

FAR CRY 5

Anonymous, добрый вечер, мы катастрофически не успеваем собрать деньги на оплату серверов, помогите нам пожалуйста 5,10,15р., для нас важна любая помощь . В качестве благодарности мы отключим Вам всю рекламу на сайте (укажите свой ник в строку Ваше имя)!

×
  
Magnet ссылка

Владимир Кузьмин - Видеография.Часть 1, 2 [2011 г., Pop, Rock, VHSRip, SATRip, DVDRip] pb.wtf

Владимир Кузьмин - Видеография.Часть 1, 2 через торрент pb.wtf

Размер: 6.87 GB | Добавлен: 7 лет 11 мес. назад | Торрент скачан:76 раз
Смотреть онлайн Владимир Кузьмин - Видеография.Часть 1, 2 | Скачать    Ребята, помогите собрать деньги на оплату серверов!!!

10-12-2013 04:59 Владимир Кузьмин - Видеография.Часть 1, 2 Скачать торрент  

Владимир Кузьмин - Видеография.Часть 1, 2
Год выпуска: 2011
Страна: CCCР,Россия
Жанр: Pop, Rock
Продолжительность: 01:19:21 + 01:16:17
Перевод: Оригинал

В ролях: Владимир Кузьмин, группа «Динамик», Алла Борисовна Пугачева, Александр Барыкин, Вера Сотникова

Описание: Влади́мир Бори́сович Кузьми́н (род. 31 мая 1955, Москва) — советский и российский рок-музыкант, мультиинструменталист, рок-вокалист, автор песен. Народный артист России (2011)
Начиная с 1983 года, на протяжении более чем 20 лет Владимир Кузьмин выпустил около 20 альбомов и написал более 200 песен, многие из которых были им исполнены вместе с музыкантами группы «Динамик».
диск 1
01. Я не Ромео, ты не Джульетта
02. Две звезды
03. Ещё вчера
94. Лёд слёзы льёт
05. Симона
06. Мама купила мне гитару
07. Моя гитара
08. Ливень
09. Эй, красотка
10. Ты позвони мне среди ночи
11. Я возращался домой
12. Моя любовь
13. Любимый мотив
14. По прежнему вдвоём (капюшон)
15. Я не Казанова
16. Когда меня ты позовёшь
17. Нет , я не верю
18. Как ты живёшь без меня

диск 2
01. 7 морей
02. Небеса
03. Осень нашей любви
04. Странные дни
05. Небесное притяжение
06. Сибирские морозы
07. Желтая дорога
08. Невольница желтой земли
09. 17 лет
10. California Rain
11. Королева красоты
12. Сказка моей жизни
13. Огонёк
14. Umberto Tozzi Ti amo
15. Мячик ( Барыкин)
Качество: VHSRip, SATRip, DVDRip
Формат: MP4
Видео кодек: AVC
Аудио кодек: AAC
Видео: MPEG4 Video (H264) 720x576 (295:216), 25.00fps, 5 995 Kbps
Аудио: AAC 48000Hz stereo, 1536kbps
Релиз от: Sachahome





General
Complete name : E:Ввладимир КузьминSachahome - Кузьмин (FireBit-ретро).mp4
Format : MPEG-4
Format profile : Base Media / Version 2
Codec ID : mp42
File size : 3.50 GiB
Duration : 1h 19mn
Overall bit rate : 6 319 Kbps
Encoded date : UTC 2011-05-13 06:01:02
Tagged date : UTC 2011-05-13 06:01:02

Video
ID : 2
Format : AVC
Format/Info : Advanced Video Codec
Format profile : Main@L3.0
Format settings, CABAC : Yes
Format settings, ReFrames : 5 frames
Format settings, GOP : M=3, N=24
Codec ID : avc1
Codec ID/Info : Advanced Video Coding
Duration : 1h 19mn
Bit rate mode : Variable
Bit rate : 5 995 Kbps
Width : 720 pixels
Height : 576 pixels
Display aspect ratio : 4:3
Frame rate mode : Constant
Frame rate : 25.000 fps
Standard : NTSC
Color space : YUV
Chroma subsampling : 4:2:0
Bit depth : 8 bits
Scan type : Progressive
Bits/(Pixel*Frame) : 0.578
Stream size : 3.32 GiB (95%)
Language : English
Encoded date : UTC 2011-05-13 06:01:02
Tagged date : UTC 2011-05-13 06:01:02

Audio
ID : 1
Format : AAC
Format/Info : Advanced Audio Codec
Format profile : LC
Codec ID : 40
Duration : 1h 19mn
Bit rate mode : Constant
Bit rate : 320 Kbps
Channel(s) : 2 channels
Channel positions : Front: L R
Sampling rate : 48.0 KHz
Compression mode : Lossy
Stream size : 182 MiB (5%)
Language : English
Encoded date : UTC 2011-05-13 06:01:02
Tagged date : UTC 2011-05-13 06:01:02

pb.wtf



Скачать Владимир Кузьмин - Видеография.Часть 1, 2 через торрент https://pic1.kartinco.top/images/61/xl62w.jpg Скачать, смотреть онлайн Владимир Кузьмин - Видеография.Часть 1, 2 [2011 г., Pop, Rock, VHSRip, SATRip, DVDRip] бесплантно в хорошем качестве Описание: Влади́мир Бори́сович Кузьми́н (род. 31 мая 1955, Москва) — советский и российский рок-музыкант, мультиинструменталист, ... 8.8 10 4
Info! Золотая раздача, скачанное не засчитывается.
Торрент: Зарегистрирован [2013-12-10 04:59] · скачан: 76 раз
Статус: √ проверено
Размер: 6.87 GB
Как cкачать? Как скачать Владимир Кузьмин - Видеография.Часть 1, 2 через торрент | UTorrent

28-11-2019 20:33  

Отключить всю рекламу на сайте

    Дорогой пользователь! Огромная просьба, поблагодарите релизера, оцените раздачу и оставьте свои комментарий, если Вы скачали Владимир Кузьмин - Видеография.Часть 1, 2 через торрент бесплатно!
    Комментировать посты могут только пользователи прошедшие не сложную регистрацию
    Показать сообщения:    

    Владимир Кузьмин - Видеография.Часть 1, 2 через торрент
    Скачать бесплатно Владимир Кузьмин - Видеография.Часть 1, 2
    Владимир Кузьмин - Видеография.Часть 1, 2 скачать торрент
    Владимир Кузьмин - Видеография.Часть 1, 2 смотреть онлайн
    Cкачать фильм Владимир Кузьмин - Видеография.Часть 1, 2 бесплатно
    Владимир Кузьмин - Видеография.Часть 1, 2 скачать торрент в хорошем качестве
    Владимир Кузьмин - Видеография.Часть 1, 2 смотреть онлайн бесплатно в хорошем качестве


    Вы не можете начинать темы
    Вы не можете отвечать на сообщения
    Вы не можете редактировать свои сообщения
    Вы не можете удалять свои сообщения
    Вы не можете голосовать в опросах
    Вы не можете прикреплять файлы к сообщениям
    Вы можете скачивать файлы