Присоединяйтесь к нам в Telegram!, здесь всегда актуальный адрес сайта, оперативная поддержка и многое другое!!

>

5.9

iTunes

7.4

iTunes

9.4

1 сезон

1

7.4

2 сезон

7.2

iTunes

7.3

1 сезон

13

6.1

iTunes

8.3

GOG

30

ULTIMATE

pack

9.9

Лицензия

ВАЖНО

ИГРА 18+

pack

7.3

RePack

MK11

7.7

RePack

jed

7.8

RePack

fifa19

8.5

RePack

RDR2

RePack

NEED FOR SPEED™ PAYBACK

5 сезон

9 сезон

Бесстыжие 9 сезон

Все сериалы

все сериалы на PB.wtf

RePack

FAR CRY 5

Anonymous, добрый вечер, мы катастрофически не успеваем собрать деньги на оплату серверов, помогите нам пожалуйста 5,10,15р., для нас важна любая помощь . В качестве благодарности мы отключим Вам всю рекламу на сайте (укажите свой ник в строку Ваше имя)!

×
  
Magnet ссылка

Битлз: Лучшие песни + Караоке / The Beatles - Gold: Greatest Hits [2008 г., Rock, DVDRip] pb.wtf

Битлз: Лучшие песни + Караоке через торрент pb.wtf

Размер: 2.13 GB | Добавлен: 7 лет 11 мес. назад | Торрент скачан:159 раз
Смотреть онлайн Битлз: Лучшие песни + Караоке | Скачать    Ребята, помогите собрать деньги на оплату серверов!!!

10-12-2013 07:31 Битлз: Лучшие песни + Караоке Скачать торрент  

Битлз: Лучшие песни + Караоке
Год выпуска: 2008
Страна: Великобритания
Жанр: Rock
Продолжительность: 00:54:58 + 01:34:50
Перевод: Оригинал

В ролях: Джон Леннон, Пол Маккартни, Джордж Харрисон, Ринго Старр, The Beatles

Описание: Джон Леннон, Пол МакКартни, Джордж Харрсон и Ринго Старр - четыре культовых имени поп-музыки. Вместе они были историей, они были "Битлз" - группой, которая возглавляет список 50-ти величайших исполнителей всех времен по версии журнала "Rolling Stone". На диске подборка лучших песен ливерпульской четверки, а также караоке-версии некоторых, так что сможете и попеть при удобном случае...
его нет,релизер непредоставил,сорри
Качество: DVDRip
Формат: AVI
Видео кодек: DivX 5
Аудио кодек: AC3
Видео: DivX 5 720x480, 23.98fps, 1 989 Kbps
Аудио: Dolby AC3 48000Hz stereo, 192kbps
Релиз от: kolombo





General
Complete name : E:BeatlesThe Beatles - Gold_ Greatest Hits (2008) DVDRip.avi
Format : AVI
Format/Info : Audio Video Interleave
File size : 1.45 GiB
Duration : 1h 34mn
Overall bit rate : 2 190 Kbps
Writing application : VirtualDubMod 1.5.10.3 | www.virtualdub-fr.org || (build 2550/release)
Writing library : VirtualDubMod build 2550/release

Video
ID : 0
Format : MPEG-4 Visual
Format profile : Advanced Simple@L5
Format settings, BVOP : 1
Format settings, QPel : No
Format settings, GMC : No warppoints
Format settings, Matrix : Default (MPEG)
Codec ID : DX50
Codec ID/Hint : DivX 5
Duration : 1h 34mn
Bit rate : 1 989 Kbps
Width : 720 pixels
Height : 480 pixels
Display aspect ratio : 3:2
Frame rate : 23.976 fps
Standard : NTSC
Color space : YUV
Chroma subsampling : 4:2:0
Bit depth : 8 bits
Scan type : Progressive
Compression mode : Lossy
Bits/(Pixel*Frame) : 0.240
Stream size : 1.32 GiB (91%)
Writing library : XviD 1.2.1 (UTC 2008-12-04)

Audio
ID : 1
Format : AC-3
Format/Info : Audio Coding 3
Mode extension : CM (complete main)
Codec ID : 2000
Duration : 1h 34mn
Bit rate mode : Constant
Bit rate : 192 Kbps
Channel(s) : 2 channels
Channel positions : Front: L R
Sampling rate : 48.0 KHz
Bit depth : 16 bits
Compression mode : Lossy
Stream size : 130 MiB (9%)
Alignment : Split accross interleaves
Interleave, duration : 42 ms (1.00 video frame)
Interleave, preload duration : 500 ms

pb.wtf



Скачать Битлз: Лучшие песни + Караоке через торрент https://pic1.kartinco.top/images/61/6i9mv.jpg Скачать, смотреть онлайн Битлз: Лучшие песни + Караоке бесплантно в хорошем качестве Описание: Джон Леннон, Пол МакКартни, Джордж Харрсон и Ринго Старр - четыре культовых имени поп-музыки. Вместе они были историей, они были ... 8.5 10 6
Info! Золотая раздача, скачанное не засчитывается.
Торрент: Зарегистрирован [2013-12-10 07:31] · скачан: 159 раз
Статус: √ проверено
Размер: 2.13 GB
Как cкачать? Как скачать Битлз: Лучшие песни + Караоке через торрент | UTorrent

28-11-2019 20:33  

Отключить всю рекламу на сайте

10-12-2013 19:01 Битлз: Лучшие песни + Караоке Скачать торрент  

Существует множество слухов о том, кому посвящена любовная баллада “Michelle” группы The Beatles, и даже объяснение Пола Маккартни не смогло развеять их все. Одни говорят, что речь идет о маленькой французской девочке, которую битлы увидели в Ливерпуле. Другие утверждают, что Мишель звали фанатку The Beatles, погибшую в давке на их концерте. Естественно, многие поклонники уверены, что так звали тайную возлюбленную кого-то из участников группы.

Однако у нас нет оснований не доверять Маккартни, который достаточно подробно рассказал о том, как была написана “Michelle”. Поэтому будем придерживаться этой версии.

В конце пятидесятых годов Пол Маккартни увлекался французской культурой и часто посещал вечеринки у Остина Митчелла, преподавателя Леннона в художественном колледже Ливерпуля. Там он однажды услышал, как весьма колоритный парень пел что-то забавное на французском. Неизвестно, чем он так запомнился Маккартни, но Пол вскоре написал пародийную песню, в которой вместо настоящих слов были звуки, имитирующие французскую речь.

Он развлекал нею друзей в течение нескольких лет, пока в 1965 году Джон Леннон не предложил ему довести песню до ума и включить ее в альбом “Rubber Soul”. Они пришли к единому мнению, что необходимо сохранить французское настроение, для чего пригласили поработать над текстом преподавателя языка Айвена Вогана. Именно его жена подсказала назвать композицию женским именем Мишель и придумала к нему рифму “ma belle” («моя красавица»).

Так что любые спекуляции относительно подтекста “Michelle”, скорее всего, не имеют под собой основания. Имя Мишель было выбрано исключительно из-за благозвучности. Слова “I love you, I love you, I love you” предложил добавить Леннон. Он позаимствовал ее из песни Нины Симон “I Put a Spell on You”.

Фраза на французском языке является переводом строчки “These are words that go together well” («Эти слова так хорошо сочетаются»).

В 1967 году “Michelle” получила Грэмми в номинации «Песня года».pb.wtf



    Дорогой пользователь! Огромная просьба, поблагодарите релизера, оцените раздачу и оставьте свои комментарий, если Вы скачали Битлз: Лучшие песни + Караоке через торрент бесплатно!
    Комментировать посты могут только пользователи прошедшие не сложную регистрацию
    Показать сообщения:    

    Битлз: Лучшие песни + Караоке через торрент
    Скачать бесплатно Битлз: Лучшие песни + Караоке
    Битлз: Лучшие песни + Караоке скачать торрент
    Битлз: Лучшие песни + Караоке смотреть онлайн
    Cкачать фильм Битлз: Лучшие песни + Караоке бесплатно
    Битлз: Лучшие песни + Караоке скачать торрент в хорошем качестве
    Битлз: Лучшие песни + Караоке смотреть онлайн бесплатно в хорошем качестве


    Вы не можете начинать темы
    Вы не можете отвечать на сообщения
    Вы не можете редактировать свои сообщения
    Вы не можете удалять свои сообщения
    Вы не можете голосовать в опросах
    Вы не можете прикреплять файлы к сообщениям
    Вы можете скачивать файлы