Присоединяйтесь к нам в Telegram!, здесь всегда актуальный адрес сайта, оперативная поддержка и многое другое!!

>

5.9

iTunes

7.4

iTunes

9.4

1 сезон

1

7.4

2 сезон

7.2

iTunes

7.3

1 сезон

13

6.1

iTunes

8.3

GOG

30

ULTIMATE

pack

9.9

Лицензия

ВАЖНО

ИГРА 18+

pack

7.3

RePack

MK11

7.7

RePack

jed

7.8

RePack

fifa19

8.5

RePack

RDR2

RePack

NEED FOR SPEED™ PAYBACK

5 сезон

9 сезон

Бесстыжие 9 сезон

Все сериалы

все сериалы на PB.wtf

RePack

FAR CRY 5

Anonymous, добрый вечер, мы катастрофически не успеваем собрать деньги на оплату серверов, помогите нам пожалуйста 5,10,15р., для нас важна любая помощь . В качестве благодарности мы отключим Вам всю рекламу на сайте (укажите свой ник в строку Ваше имя)!

×
  
Magnet ссылка

Золотые хиты Abba / Abba Gold [2003 г., Pop, DVDRip] pb.wtf

Золотые хиты Abba через торрент pb.wtf

Размер: 1.37 GB | Добавлен: 7 лет 11 мес. назад | Торрент скачан:251 раз
Смотреть онлайн Золотые хиты Abba | Скачать    Ребята, помогите собрать деньги на оплату серверов!!!

11-12-2013 07:05 Золотые хиты Abba Скачать торрент  

Золотые хиты Abba
Год выпуска: 2003
Страна: Sveden
Жанр: Pop
Продолжительность: 01:15:38
Перевод: Оригинал

В ролях: ABBA

Описание: В альбоме ABBA Gold присутствовали 19 наиболее заметных хитов международного масштаба, но некоторые не менее известные песни вроде «Summer Night City» и «Angeleyes» остались «за бортом». Также он не включил в себя ряд других песен группы (записи начала 1980-х: «Head over Heels» и «The Day Before You Came»; вторые стороны известных синглов и просто треки с альбомов, а также «I Am the City», записанная в 1982 году, но так и не выпущенная). Всё это вышло в свет на альбоме More ABBA Gold: More ABBA Hits.
ABBA (на русском — А́ББА) — шведский музыкальный квартет, существовавший в 1972—1982 годах и названный по первым буквам имён исполнителей. Является одним из наиболее успешных коллективов за всю историю популярной музыки и самым успешным из числа созданных в Скандинавии: записи группы по всему миру были проданы тиражом более 350 миллионов экземпляров. Синглы квартета занимали первые места в мировых чартах с середины 1970-х (Waterloo) до начала 1980-х (One of Us), а альбомы-сборники возглавляли мировые хит-парады и в 2000-х. Они остались в плей-листах радиостанций, и их альбомы продолжают продаваться по сей день.
Они были первыми представителями континентальной Европы, кто завоевал первые места в чартах всех ведущих англоговорящих стран (США, Великобритания, Канада, Ирландия, Австралия и Новая Зеландия).
01 Dancing Queen
02 Knowing me knowing you
03 Take a chance on me
04 Mamma mia
05 Lay all your love on me
06 Super trouper
07 I have a dream
08 The winner takes it all
09 Money money money
10 Sos
11 Chiquitita
12 Fernando
13 Voulez-vous
14 Gimme gimme gimme
15 Does your mother know
16 One of us
17 The name of the game
18 Thank you for the music
19 Waterloo
Качество: DVDRip
Формат: AVI
Видео кодек: XviD
Аудио кодек: AC3
Видео: Xvid 704x528, 25.00fps, 2 201 Kbps
Аудио: Dolby AC3 48000Hz stereo, 384kbps
Релиз от: ilu





General
Complete name : E:Abba Gold.avi
Format : AVI
Format/Info : Audio Video Interleave
File size : 1.37 GiB
Duration : 1h 15mn
Overall bit rate : 2 589 Kbps
Writing application : VirtualDubMod 1.5.4.1 (build 2178/release)
Writing library : VirtualDubMod build 2178/release

Video
ID : 0
Format : MPEG-4 Visual
Format profile : Advanced Simple@L5
Format settings, BVOP : 1
Format settings, QPel : No
Format settings, GMC : No warppoints
Format settings, Matrix : Custom
Codec ID : XVID
Codec ID/Hint : XviD
Duration : 1h 15mn
Bit rate : 2 201 Kbps
Width : 704 pixels
Height : 528 pixels
Display aspect ratio : 4:3
Frame rate : 25.000 fps
Color space : YUV
Chroma subsampling : 4:2:0
Bit depth : 8 bits
Scan type : Progressive
Compression mode : Lossy
Bits/(Pixel*Frame) : 0.237
Stream size : 1.16 GiB (85%)
Writing library : XviD 1.2.1 (UTC 2008-12-04)

Audio
ID : 1
Format : AC-3
Format/Info : Audio Coding 3
Mode extension : CM (complete main)
Codec ID : 2000
Duration : 1h 15mn
Bit rate mode : Constant
Bit rate : 384 Kbps
Channel(s) : 2 channels
Channel positions : Front: L R
Sampling rate : 48.0 KHz
Bit depth : 16 bits
Compression mode : Lossy
Stream size : 206 MiB (15%)
Alignment : Split accross interleaves
Interleave, duration : 97 ms (2.42 video frames)
Interleave, preload duration : 96 ms

pb.wtf



Скачать Золотые хиты Abba через торрент https://pic1.kartinco.top/images/61/42p3v.jpg Скачать, смотреть онлайн Золотые хиты Abba бесплантно в хорошем качестве Описание: В альбоме ABBA Gold присутствовали 19 наиболее заметных хитов международного масштаба, но некоторые не менее известные песни ... 9.9 10 13
Info! Золотая раздача, скачанное не засчитывается.
Торрент: Зарегистрирован [2013-12-11 07:05] · скачан: 251 раз
Статус: √ проверено
Размер: 1.37 GB
Как cкачать? Как скачать Золотые хиты Abba через торрент | UTorrent

28-11-2019 20:33  

Отключить всю рекламу на сайте

    Дорогой пользователь! Огромная просьба, поблагодарите релизера, оцените раздачу и оставьте свои комментарий, если Вы скачали Золотые хиты Abba через торрент бесплатно!
    Комментировать посты могут только пользователи прошедшие не сложную регистрацию
    Показать сообщения:    

    Золотые хиты Abba через торрент
    Скачать бесплатно Золотые хиты Abba
    Золотые хиты Abba скачать торрент
    Золотые хиты Abba смотреть онлайн
    Cкачать фильм Золотые хиты Abba бесплатно
    Золотые хиты Abba скачать торрент в хорошем качестве
    Золотые хиты Abba смотреть онлайн бесплатно в хорошем качестве


    Вы не можете начинать темы
    Вы не можете отвечать на сообщения
    Вы не можете редактировать свои сообщения
    Вы не можете удалять свои сообщения
    Вы не можете голосовать в опросах
    Вы не можете прикреплять файлы к сообщениям
    Вы можете скачивать файлы