Ссылка на приватное зеркало нашего сайта всего за 1$. Внимание количество ограничено!!!

2 сезон

iTunes

1 сезон

1

2 сезон

2 сезон

iTunes

1 сезон

RePack

30

Новинка

ВАЖНО

ИГРА 18+

pack

RePack

MK11
pack

Забери бонус

RePack

jed

!!Акция!!

Alien_Rage

RePack

fifa19

RePack

Assassins Creed: Odyssey

RePack

NEED FOR SPEED™ PAYBACK

4 сезон

9 сезон

Бесстыжие 9 сезон

Все сериалы

все сериалы на PB.wtf

RePack

FAR CRY 5
  

Последняя любовь мистера Моргана / Mr. Morgan's Last Love (Сандра Неттельбек) [2013, Германия, Бельгия, США, Франция, драма, комедия, WEB-DL 720p] DVO [Jimmy J.] + Original pb.wtf

Последняя любовь мистера Моргана через торрент pb.wtf

Размер: 3.86 GB | Добавлен: 6 лет 11 мес. назад | Торрент скачан:153 раза
Скачать  

08-12-2013 19:19 Последняя любовь мистера Моргана Скачать торрент  

Последняя любовь мистера Моргана / Mr. Morgan's Last Love
«It's never too late to love life again»
Год выпуска: 2013
Страна: Германия, Бельгия, США, Франция
Жанр: драма, комедия
Продолжительность: 01:55:48
Перевод:
|Профессиональный (двухголосый, закадровый), Jimmy J.|
Субтитры: Русские (форсированые на французскую речь),
английские,
Режиссер: Сандра Неттельбек / Sandra Nettelbeck
В ролях: Майкл Кейн (Matthew Morgan), Клеманс Поэзи (Pauline Laubie), Джиллиан Андерсон (Karen Morgan), Джастин Кирк (Miles Morgan), Джейн Александр (Joan Morgan), Ричард Хоуп (Philatelist), Аликс Пуасон, Анн Альваро (Colette LГ©ry), Кристель Корнил (La boulangГЁre), Янник Шуара (Lucien), Дитер Рапп (Policeman), Мишель Годде (Mme Dune)
Описание:
Пожилой американский профессор Мэтью Морган одиноко и замкнуто живет в Париже, преподает философию в университете. Жена, которую он очень любил, умерла несколько лет назад. Кажется, что всё главное в его жизни осталось в прошлом. Так и было, пока однажды в автобусе ему, едва не упавшему, не протянула руку помощи Полин, молодая, открытая, веселая парижанка...
Рейтинг
imdb.com: 6.70 (971)

Качество: WEB-DL 720p
Формат: MKV
Видео кодек: AVC
Аудио кодек: AC3
Видео: AVC, 1280x690 (1.855), 3906 kbps, 23,976 fps, 0,185 bpp
Аудио №1: русский / AC3 / 5.1 / 48 kHz / 384 kbps / 16 bit ||
Аудио №2: английский / AC3 / 5.1 / 48 kHz / 384 kbps / 16 bit

Оформление: Messa-fan
Озвучка: Jimmy J. - Дмитрий Чепусов и Светлана Чистохина
Перевод: Анна Самородова
General
Unique ID : 217217636099476017579721891431753158158 (0xA36A9850B1C53AB5A34C224C27D78E0E)
Complete name : Last.Love.2013.720p.WEB-DL.Rus.Eng.mkv
Format : Matroska
Format version : Version 2
File size : 3.86 GiB
Duration : 1h 55mn
Overall bit rate : 4 770 Kbps
Encoded date : UTC 2013-12-08 15:34:57
Writing application : mkvmerge v5.8.0 ('No Sleep / Pillow') built on Sep 2 2012 15:37:04
Writing library : libebml v1.2.3 + libmatroska v1.3.0

Video
ID : 1
Format : AVC
Format/Info : Advanced Video Codec
Format profile : High@L3.1
Format settings, CABAC : No
Format settings, ReFrames : 2 frames
Codec ID : V_MPEG4/ISO/AVC
Duration : 1h 55mn
Bit rate : 3 907 Kbps
Width : 1 280 pixels
Height : 690 pixels
Display aspect ratio : 1.855
Frame rate : 23.976 fps
Color space : YUV
Chroma subsampling : 4:2:0
Bit depth : 8 bits
Scan type : Progressive
Bits/(Pixel*Frame) : 0.185
Stream size : 3.16 GiB (82%)
Language : English
Default : Yes
Forced : No
Color primaries : BT.709-5, BT.1361, IEC 61966-2-4, SMPTE RP177
Transfer characteristics : BT.709-5, BT.1361
Matrix coefficients : BT.709-5, BT.1361, IEC 61966-2-4 709, SMPTE RP177

Audio #1
ID : 2
Format : AC-3
Format/Info : Audio Coding 3
Mode extension : CM (complete main)
Codec ID : A_AC3
Duration : 1h 55mn
Bit rate mode : Constant
Bit rate : 384 Kbps
Channel(s) : 6 channels
Channel positions : Front: L C R, Side: L R, LFE
Sampling rate : 48.0 KHz
Bit depth : 16 bits
Compression mode : Lossy
Stream size : 318 MiB (8%)
Title : DVO Дмитрий Чепусов и Светлана Чистохина
Language : Russian
Default : Yes
Forced : No

Audio #2
ID : 3
Format : AC-3
Format/Info : Audio Coding 3
Mode extension : CM (complete main)
Codec ID : A_AC3
Duration : 1h 55mn
Bit rate mode : Constant
Bit rate : 384 Kbps
Channel(s) : 6 channels
Channel positions : Front: L C R, Side: L R, LFE
Sampling rate : 48.0 KHz
Bit depth : 16 bits
Compression mode : Lossy
Stream size : 318 MiB (8%)
Language : English
Default : No
Forced : No

Text #1
ID : 4
Format : ASS
Codec ID : S_TEXT/ASS
Codec ID/Info : Advanced Sub Station Alpha
Compression mode : Lossless
Title : forced
Language : Russian
Default : Yes
Forced : Yes

Text #2
ID : 5
Format : UTF-8
Codec ID : S_TEXT/UTF8
Codec ID/Info : UTF-8 Plain Text
Language : English
Default : No
Forced : No

Menu
00:00:00.000 : en:Opening
00:10:55.000 : en:Other Plans
00:21:42.000 : en:Dance Lessons
00:32:46.000 : en:Reservation for Two
00:44:48.000 : en:Self Medicated
00:57:21.000 : en:Rain Check
01:14:43.000 : en:St. Malo
01:30:03.000 : en:Where's My Father
01:34:43.000 : en:Don't Hurt Her
01:42:05.000 : en:Saying Goodbye
01:47:04.000 : en:I Will Come Back for You
01:50:39.000 : en:Credits

скриншот   скриншот   скриншот   скриншот   скриншот   скриншот   скриншот   скриншот   скриншот   скриншот  




pb.wtf



Скачать Последняя любовь мистера Моргана через торрент http://i58.fastpic.ru/big/2013/1208/20/8de49292b2ebd5f302d218b5d3e7fb20.png Скачать фильм Последняя любовь мистера Моргана через торрент бесплантно в хорошем качестве Описание: Пожилой американский профессор Мэтью Морган одиноко и замкнуто живет в Париже, преподает философию в университете. Жена, которую ... 9.6 10 7
Info! Золотая раздача, скачанное не засчитывается.
Торрент: Зарегистрирован [2013-12-12 18:22] · скачан: 153 раз
Статус: √ проверено
Размер: 3.86 GB
Как cкачать? Как скачать Последняя любовь мистера Моргана через торрент | qTorrent

28-11-2019 20:33  

Отключить всю рекламу на сайте

    Дорогой пользователь! Огромная просьба, поблагодарите релизера, оцените раздачу и оставьте свои комментарий, если Вы скачали Последняя любовь мистера Моргана через торрент бесплатно! Внесите свою лепту в развитие PiratBit!
    Комментировать посты могут только пользователи прошедшие не сложную регистрацию
    Показать сообщения:    

    Последняя любовь мистера Моргана через торрент
    Скачать бесплатно Последняя любовь мистера Моргана
    Последняя любовь мистера Моргана скачать торрент
    Последняя любовь мистера Моргана смотреть онлайн
    Cкачать фильм Последняя любовь мистера Моргана бесплатно
    Последняя любовь мистера Моргана скачать торрент в хорошем качестве
    Последняя любовь мистера Моргана смотреть онлайн бесплатно в хорошем качестве


    Вы не можете начинать темы
    Вы не можете отвечать на сообщения
    Вы не можете редактировать свои сообщения
    Вы не можете удалять свои сообщения
    Вы не можете голосовать в опросах
    Вы не можете прикреплять файлы к сообщениям
    Вы можете скачивать файлы