Присоединяйтесь к нам в Telegram!, здесь всегда актуальный адрес сайта, оперативная поддержка и многое другое!!

>

5.9

iTunes

7.4

iTunes

9.4

1 сезон

1

7.4

2 сезон

7.2

iTunes

7.3

1 сезон

13

6.1

iTunes

8.3

Пиратка

30

ULTIMATE

pack

9.9

Лицензия

ВАЖНО

ИГРА 18+

pack

7.3

RePack

MK11

7.7

RePack

jed

7.8

RePack

fifa19

8.5

RePack

RDR2

RePack

NEED FOR SPEED™ PAYBACK

5 сезон

9 сезон

Бесстыжие 9 сезон

Все сериалы

все сериалы на PB.wtf

RePack

FAR CRY 5

Anonymous, доброе утро, мы катастрофически не успеваем собрать деньги на оплату серверов, помогите нам пожалуйста 5,10,15р., для нас важна любая помощь . В качестве благодарности мы отключим Вам всю рекламу на сайте (укажите свой ник в строку Ваше имя)!

×
  
Magnet ссылка

Видеография Boney'M (1976 - 1986) / Boney'M - ZDF Kultnacht [2006 г., Disco, DVDRip] pb.wtf

Видеография Boney'M через торрент pb.wtf

Размер: 2.12 GB | Добавлен: 7 лет 11 мес. назад | Торрент скачан:233 раза
Смотреть онлайн Видеография Boney'M | Скачать    Ребята, помогите собрать деньги на оплату серверов!!!

12-12-2013 19:48 Видеография Boney'M Скачать торрент  

Видеография Boney'M (1976 - 1986)
Год выпуска: 2006
Страна: Германия, 2DF
Жанр: Disco,
Продолжительность: 01:00:17 + 00:58:25
Перевод: Оригинал

В ролях: Лиз Митчелл, Марсия Барретт, Мэйзи Уилльямс, Бобби Фаррелл.,

Описание: Видеография немецкой суперпопулярной группы Boney M, за период с 1976 по 1986 года. Представлены все хиты группы, а также интервью с основателем и продюсером группы Frank Farian....
Boney M. — немецкая (изначально западно-германская) диско-группа, созданная в 1975 музыкальным продюсером Фрэнком Фарианом.
Западногерманский продюсер Фрэнк Фариан, экспериментируя с новым стилем диско, записывает необычную композицию Baby Do You Wanna Bump? в конце 1974 и публикует её под псевдонимом Boney M., по имени героя популярного тогда австралийского детективного сериала.
Диск-1

1. Medley
2. Daddy Cool
3. No Woman No Cry
4. Sunny
5. Ma Baker
6. Belfast
7. Brown Girl In The Ring
8. Rivers Of Babylon
9. Mary's Boy Child
10. Rasputin
11. Hooray! Hooray! It's A Holi-Holiday!
12. Ribbons Of Blue
13. El Lute
14. Bahama Mama
15. I'm Born Again
16. Calendar Song

Диск-2

1. Still I'm Sad
2. Painter Man
3. Two Of Us
4. Gotta Go Home
5. Oceans Of Fantasy
6. I See A Boat On The River
7. Children Of Paradise
8. Boonoonoonoos - Medley
9. Malaika
10. The Carnival Is Over
11. Kalimba De Luna
12. Somewhere In The World
13. Happy Song
14. My Cherie Amour
15. Dreadlock Holiday
16. Daddy Cool - Das Musical
Качество: DVDRip
Формат: AVI
Видео кодек: XviD
Аудио кодек: AC3
Видео 1: Xvid 704x528, 25.00fps, 1 813 Kbps
Видео 2: Xvid 704x528, 25.00fps, 2 407 Kbps
Аудио: Dolby AC3, 48000Hz 6ch, 448kbps
Релиз от: LOOK





General
Complete name : E:Bboney mBoneyM.Kultnacht.1-2.iz.2.2006.DVDRip.LOOKBoneyM.Kultnacht.1.2006.DVDRip.LOOK.avi
Format : AVI
Format/Info : Audio Video Interleave
File size : 979 MiB
Duration : 1h 0mn
Overall bit rate : 2 270 Kbps
Writing application : VirtualDubMod 1.5.4.1 (build 2178/release)
Writing library : VirtualDub build 32817/release

Video
ID : 0
Format : MPEG-4 Visual
Format profile : Advanced Simple@L5
Format settings, BVOP : 1
Format settings, QPel : No
Format settings, GMC : No warppoints
Format settings, Matrix : Custom
Codec ID : XVID
Codec ID/Hint : XviD
Duration : 1h 0mn
Bit rate : 1 813 Kbps
Width : 704 pixels
Height : 528 pixels
Display aspect ratio : 4:3
Frame rate : 25.000 fps
Color space : YUV
Chroma subsampling : 4:2:0
Bit depth : 8 bits
Scan type : Progressive
Compression mode : Lossy
Bits/(Pixel*Frame) : 0.195
Stream size : 782 MiB (80%)
Writing library : XviD 1.2.1 (UTC 2008-12-04)

Audio
ID : 1
Format : AC-3
Format/Info : Audio Coding 3
Mode extension : CM (complete main)
Codec ID : 2000
Duration : 1h 0mn
Bit rate mode : Constant
Bit rate : 448 Kbps
Channel(s) : 6 channels
Channel positions : Front: L C R, Side: L R, LFE
Sampling rate : 48.0 KHz
Bit depth : 16 bits
Compression mode : Lossy
Stream size : 193 MiB (20%)
Alignment : Split accross interleaves
Interleave, duration : 40 ms (1.00 video frame)
Interleave, preload duration : 500 ms

General
Complete name : E:Bboney mBoneyM.Kultnacht.1-2.iz.2.2006.DVDRip.LOOKBoneyM.Kultnacht.2.2006.DVDRip.LOOK.avi
Format : AVI
Format/Info : Audio Video Interleave
File size : 1.17 GiB
Duration : 58mn 24s
Overall bit rate : 2 864 Kbps
Writing application : VirtualDubMod 1.5.4.1 (build 2178/release)
Writing library : VirtualDub build 32817/release

Video
ID : 0
Format : MPEG-4 Visual
Format profile : Advanced Simple@L5
Format settings, BVOP : 1
Format settings, QPel : No
Format settings, GMC : No warppoints
Format settings, Matrix : Custom
Codec ID : XVID
Codec ID/Hint : XviD
Duration : 58mn 24s
Bit rate : 2 407 Kbps
Width : 704 pixels
Height : 528 pixels
Display aspect ratio : 4:3
Frame rate : 25.000 fps
Color space : YUV
Chroma subsampling : 4:2:0
Bit depth : 8 bits
Scan type : Progressive
Compression mode : Lossy
Bits/(Pixel*Frame) : 0.259
Stream size : 1 006 MiB (84%)
Writing library : XviD 1.2.1 (UTC 2008-12-04)

Audio
ID : 1
Format : AC-3
Format/Info : Audio Coding 3
Mode extension : CM (complete main)
Codec ID : 2000
Duration : 58mn 24s
Bit rate mode : Constant
Bit rate : 448 Kbps
Channel(s) : 6 channels
Channel positions : Front: L C R, Side: L R, LFE
Sampling rate : 48.0 KHz
Bit depth : 16 bits
Compression mode : Lossy
Stream size : 187 MiB (16%)
Alignment : Split accross interleaves
Interleave, duration : 40 ms (1.00 video frame)
Interleave, preload duration : 500 ms

pb.wtf



Скачать Видеография Boney'M через торрент https://pic1.kartinco.top/images/61/pq8k5.jpg Скачать, смотреть онлайн Видеография Boney бесплантно в хорошем качестве Описание: Видеография немецкой суперпопулярной группы Boney M, за период с 1976 по 1986 года. Представлены все хиты группы, а также ... 10 10 19
Info! Золотая раздача, скачанное не засчитывается.
Торрент: Зарегистрирован [2013-12-12 19:48] · скачан: 233 раз
Статус: √ проверено
Размер: 2.12 GB
Как cкачать? Как скачать Видеография Boney'M через торрент | UTorrent

28-11-2019 20:33  

Отключить всю рекламу на сайте

12-12-2013 20:12 Видеография Boney'M Скачать торрент  

СПАСИБО !!!pb.wtf



13-12-2013 19:24 Видеография Boney'M Скачать торрент  

yes трейлер сила!!!!!!!!!!! раздающий---сам то видел свой трейлер??? походу обкурился ты брат чо то.... :ireful: :ireful: :ireful: :sensored:pb.wtf



13-12-2013 21:37 Видеография Boney'M Скачать торрент  

somic
Да,я сразу и не понял - с сэмплом все в порядке,а вот трейлер надо бы заменить,хотя
вряд ли от этого содержимое раздачи становится хуже.pb.wtf



    Дорогой пользователь! Огромная просьба, поблагодарите релизера, оцените раздачу и оставьте свои комментарий, если Вы скачали Видеография Boney'M через торрент бесплатно!
    Комментировать посты могут только пользователи прошедшие не сложную регистрацию
    Показать сообщения:    

    Видеография Boney'M через торрент
    Скачать бесплатно Видеография Boney'M
    Видеография Boney'M скачать торрент
    Видеография Boney'M смотреть онлайн
    Cкачать фильм Видеография Boney'M бесплатно
    Видеография Boney'M скачать торрент в хорошем качестве
    Видеография Boney'M смотреть онлайн бесплатно в хорошем качестве


    Вы не можете начинать темы
    Вы не можете отвечать на сообщения
    Вы не можете редактировать свои сообщения
    Вы не можете удалять свои сообщения
    Вы не можете голосовать в опросах
    Вы не можете прикреплять файлы к сообщениям
    Вы можете скачивать файлы