Ссылка на приватное зеркало всего за 1$. Внимание количество ограничено!!!

iTunes

iTunes

iTunes

1

iTunes

iTunes

iTunes

WEBRip

iTunes

30
pack

$ от Little Big

ВАЖНО

!!Акция!!

Alien_RageХит недели

RePack

Resident Evil 21

ИГРА 18+

pack

RePack

jed

!!Акция!!

Alien_Rage

RePack

fifa19

RePack

Assassins Creed: Odyssey

RePack

NEED FOR SPEED™ PAYBACK

4 сезон

9 сезон

Бесстыжие 9 сезон

Все сериалы

все сериалы на PB.wtf

RePack

FAR CRY 5
  

Даун хаус (Роман Качанов) [2001, "черная" комедия, гротеск, арт-хаус, DVDRip] pb.wtf

Даун хаус через торрент pb.wtf

Размер: 1.36 GB | Добавлен: 6 лет 7 мес. назад | Торрент скачан:252 раза
Скачать  

13-12-2013 16:11 Даун хаус Скачать торрент  

Даун хаус

Год выпуска: 2001
Страна: Россия
Жанр: "черная" комедия, гротеск, арт-хаус
Продолжительность: 01:19:49
Субтитры: нет
Режиссер: Роман Качанов
Продюссер: Юрий Тюхтин
Сценарий: Роман Качанов, Иван Охлобыстин, Фёдор Достоевский

Премьера в РФ : 17 мая 2001



Возраст : 16+ ,зрителям, достигшим 16 лет
В ролях: Федор Бондарчук (Князь Мышкин), Иван Охлобыстин (Парфен Рогожин), Анна Букловская (Настасья Филипповна), Александр Баширов (Фердыщенко), Михаил Владимиров (Ганя Иволгин), Ежи Штур (Генерал Иволгин), Валентина Шарыкина (Генеральша Иволгина), Галина Кашковская (Варя Иволгина), Юозас Будрайтис (Генерал Епанчин), Барбара Брыльска (Генеральша Епанчина), Елена Котельникова (Аглая Епанчина), Артемий Троицкий (Тоцкий), Андрей Васильев (Сторож), DJ Грув (водитель такси) (в титрах – Евгений Рудин), Елена Кондулайнен (Александра Епанчина), Наталья Симакова (Аделаида Епанчина), Иван Агапов (Лебедев), Владислав Демченко (Секретарь Епанчина), Оксана Сташенко (Женщина в комбинезоне), Михаил Полицеймако (Дмитриевич), Александр Ильин (Рогожин-старший), Михаил Мукасей (Водитель автобуса), Павел Ульянов (Брат Серега), Алексей Панин (Ипполит), Анна Богданова (Марина), Ольга Будина (Девушка Мария), Аркадий Шворцер (Доктор Шнейдер), Михаил Петровский (Иван Грозный), Мирон Черненко (Аристарх Никодимыч), Жанна Чирва (Параша), Станислав Дужников (Боярин Свиньин), Григорий Данцигер (Киллер), Нелли Ильина (Учительница), Александр Мурин (Палач), Анита Тюхтина (Девочка в школе)
Описание:Действие фильма разворачивается в девяностых годах 20-го века. Программист князь Мышкин возвращается из Швейцарии, где проходил лечение в психиатрической клинике, на историческую родину за наследством. В автобусе князь знакомится с болтливым «новым русским» Парфеном Рогожиным, который страдает от любовной тоски по Настасье Филиповне. Одаренный богатым воображением, Мышкин заочно влюбляется в предмет его страсти…
Награды
2001г. - Специальный приз жюри "за поиск нового киноязыка" на ОРКФ "Кинотавр" в Сочи (Роман Качанов-младший)
2002г. - Приз жюри "за беспрецедентное обращение с романом Ф.М. Достоевского" на РКФ "Литература и кино" в Гатчине (Роман Качанов-младший).
Доп. информация :
Говорят, Федор Михайлович Достоевский в гробу бы перевернулся, если б он смог узреть то, во что было превращено его бессмертное творение "Идиот" качановско-охлобыстинским тандемом. Хотя, на самом деле, с фильмом все предельно просто: взяли в качестве "рыбы" классическое произведение, намешали туда все прелести современного псевдобогемного общества в старинных интерьерах (наркотическо-маразматические бредни, дзен-буддизм, интернет), приправили постмодернистскими заморочками и тонкими интеллектуальными приколами, украсили модным актерским составом и подали все это зрителю под пикантным экзотическим саундтреком.
Качество: DVDRip
Формат: AVI
Видео кодек: XviD
Аудио кодек: AC3
Видео: 720x416 (1.73:1), ~1984 kbps avg,25 fps, 0.27 bit/pixel
Аудио: AC3 Dolby Digital, ~448.00 kbps avg , 3/2 (L,C,R,l,r) + LFE ch, 48 kHz

Автор рипа : zim2001
скриншот   скриншот   скриншот   скриншот   скриншот   скриншот   скриншот   скриншот   скриншот   скриншот   скриншот   скриншот   скриншот   скриншот   скриншот  
Общее
Полное имя : H:tempДаун ХаусDaun.Haus.2001.avi
Формат : AVI
Формат/Информация : Audio Video Interleave
Размер файла : 1,36 Гбайт
Продолжительность : 1 ч. 19 м.
Общий поток : 2442 Кбит/сек
Программа кодирования : VirtualDubMod 1.5.10.2 (build 2540/release)
Библиотека кодирования : VirtualDubMod build 2540/release

Видео
Идентификатор : 0
Формат : MPEG-4 Visual
Профиль формата : Advanced Simple@L5
Параметр BVOP формата : 1
Параметр QPel формата : Нет
Параметр GMC формата : Без точки перехода
Параметр матрицы формата : Default (H.263)
Идентификатор кодека : XVID
Идентификатор кодека/Подсказка : XviD
Продолжительность : 1 ч. 19 м.
Битрейт : 1985 Кбит/сек
Ширина : 720 пикселей
Высота : 416 пикселей
Соотношение сторон : 1,731
Частота кадров : 25,000 кадров/сек
Цветовое пространство : YUV
Субдискретизация насыщенности : 4:2:0
Битовая глубина : 8 бит
Тип развёртки : Прогрессивная
Метод сжатия : С потерями
Бит/(Пиксели*Кадры) : 0.265
Размер потока : 1,11 Гбайт (81%)
Библиотека кодирования : XviD 1.2.0.dev47 (UTC 2006-11-01)

Аудио
Идентификатор : 1
Формат : AC-3
Формат/Информация : Audio Coding 3
Расширение режима : CM (complete main)
Параметр Endianness формата : Big
Идентификатор кодека : 2000
Продолжительность : 1 ч. 19 м.
Вид битрейта : Постоянный
Битрейт : 448 Кбит/сек
Каналы : 6 каналов
Расположение каналов : Front: L C R, Side: L R, LFE
Частота : 48,0 КГц
Битовая глубина : 16 бит
Метод сжатия : С потерями
Задержка видео : 600 мс.
Размер потока : 256 Мбайт (18%)
Выравнивание : Разделение по промежуткам
Продолжительность промежутка : 40 мс. (1,00 видеокадр)
Время предзагрузки промежутка : 500 мс.
pb.wtf



Скачать Даун хаус через торрент http://pic.kartinco.top/images/6/a5o5f.jpg Скачать фильм Даун хаус через торрент бесплантно в хорошем качестве Описание:Действие фильма разворачивается в девяностых годах 20-го века. Программист князь Мышкин возвращается из Швейцарии, где проходил ... 9.9 10 17
Info! Золотая раздача, скачанное не засчитывается.
Торрент: Зарегистрирован [2013-12-13 16:11] · скачан: 252 раз
Статус: √ проверено
Размер: 1.36 GB
Как cкачать? Как скачать Даун хаус через торрент | qTorrent

28-11-2019 20:33  

Отключить всю рекламу на сайте

15-04-2014 21:37 Даун хаус Скачать торрент  

Фильм-супер!Качанов и Охлобыстин-молодцы.спасибо всем!pb.wtf



16-04-2014 03:54 Даун хаус Скачать торрент  

tchort666, и вам спасибо ))pb.wtf



05-12-2014 14:57 Даун хаус Скачать торрент  

Это не черноя комедия ,это то что сейчас цензура не пропустит .А так это Ф.М Достоевский ,и мне думаться он не против такой версии был бы .Отличный фильм .pb.wtf



07-11-2015 11:00 Даун хаус Скачать торрент  

а есть мащнее качество?pb.wtf



    Дорогой пользователь! Огромная просьба, поблагодарите релизера, оцените раздачу и оставьте свои комментарий, если Вы скачали Даун хаус через торрент бесплатно! Внесите свою лепту в развитие PiratBit!
    Комментировать посты могут только пользователи прошедшие не сложную регистрацию
    Показать сообщения:    

    Даун хаус через торрент
    Скачать бесплатно Даун хаус
    Даун хаус скачать торрент
    Даун хаус смотреть онлайн
    Cкачать фильм Даун хаус бесплатно
    Даун хаус скачать торрент в хорошем качестве
    Даун хаус смотреть онлайн бесплатно в хорошем качестве


    Вы не можете начинать темы
    Вы не можете отвечать на сообщения
    Вы не можете редактировать свои сообщения
    Вы не можете удалять свои сообщения
    Вы не можете голосовать в опросах
    Вы не можете прикреплять файлы к сообщениям
    Вы можете скачивать файлы