Ссылка на приватное зеркало нашего сайта всего за 1$. Внимание количество ограничено!!!

2 сезон

iTunes

1 сезон

1

2 сезон

2 сезон

iTunes

1 сезон

RePack

30

Новинка

ВАЖНО

ИГРА 18+

pack

RePack

MK11
pack

Забери бонус

RePack

jed

!!Акция!!

Alien_Rage

RePack

fifa19

RePack

Assassins Creed: Odyssey

RePack

NEED FOR SPEED™ PAYBACK

4 сезон

9 сезон

Бесстыжие 9 сезон

Все сериалы

все сериалы на PB.wtf

RePack

FAR CRY 5
  

Шопинг-тур (Михаил Брашинский) [2012 г., ужасы, триллер, комедия, WEB-DLRip,(iTunes Russia)] pb.wtf

Шопинг-тур через торрент pb.wtf

Размер: 1.37 GB | Добавлен: 6 лет 11 мес. назад | Торрент скачан:133 раза
Скачать  

13-12-2013 17:36 Шопинг-тур Скачать торрент  

Шопинг-тур
Год выпуска: 2012
Страна: Россия, Финляндия
Жанр: ужасы, триллер, комедия,
Продолжительность: 01:10:04
Перевод:Оригинал (iTunes Russia)
Субтитры: местами вшитые русские субтитры

Режиссер: Михаил Брашинский



В ролях: Татьяна Колганова, Тимофей Елецкий, Татьяна Рябоконь, Сату Паавола,

Описание: Группа русских туристов отправляется в Финляндию за покупками — а попадет в лапы людоедов. Оказывается, есть один день в году, день летнего солнцестояния, когда каждый финн по древней традиции должен съесть иностранца, и сегодня — этот день. Фильм снят на мобильный телефон одним из героев — 15-летним мальчиком, которому мама на окончание 8-го класса подарила мобильник и поездку в Финляндию.

Качество: WEB-DLRip
Формат: AVI
Видео кодек: XviD
Аудио кодек: AC3
Видео: 720x400 (1.80:1), 24.000 fps, XviD build 50 ~2397 kbps avg, 0.35 bit/pixel
Аудио: 48 kHz, AC3 Dolby Digital, 3/2 (L,C,R,l,r) + LFE ch, ~384 kbps

General
Complete name : I:киноShoping-tur.2012.O.WEB-DLRip.1400MB.avi
Format : AVI
Format/Info : Audio Video Interleave
File size : 1.37 GiB
Duration : 1h 10mn
Overall bit rate : 2 791 Kbps
Movie name : Shoping-tur.2012.O.WEB-DLRip.1400MB.avi
Director : by coc900
Writing application : VirtualDubMod 1.5.10.3 | www.virtualdub-fr.org || (build 2550/release)

Video
ID : 0
Format : MPEG-4 Visual
Format profile : Advanced Simple@L5
Format settings, BVOP : 3
Format settings, QPel : Yes
Format settings, GMC : 3 warppoints
Format settings, Matrix : Default (H.263)
Codec ID : XVID
Codec ID/Hint : XviD
Duration : 1h 10mn
Bit rate : 2 397 Kbps
Width : 720 pixels
Height : 400 pixels
Display aspect ratio : 16:9
Frame rate : 24.000 fps
Color space : YUV
Chroma subsampling : 4:2:0
Bit depth : 8 bits
Scan type : Progressive
Compression mode : Lossy
Bits/(Pixel*Frame) : 0.347
Stream size : 1.17 GiB (86%)
Writing library : XviD 1.2.1 (UTC 2008-12-04)

Audio
ID : 1
Format : AC-3
Format/Info : Audio Coding 3
Mode extension : CM (complete main)
Format settings, Endianness : Big
Codec ID : 2000
Duration : 1h 10mn
Bit rate mode : Constant
Bit rate : 384 Kbps
Channel(s) : 6 channels
Channel positions : Front: L C R, Side: L R, LFE
Sampling rate : 48.0 KHz
Bit depth : 16 bits
Compression mode : Lossy
Stream size : 192 MiB (14%)
Alignment : Split accross interleaves
Interleave, duration : 42 ms (1.00 video frame)
Interleave, preload duration : 500 ms
pb.wtf



Скачать Шопинг-тур через торрент http://pic.kartinco.top/images/6/wfjho.jpg Скачать фильм Шопинг-тур через торрент бесплантно в хорошем качестве Описание: Группа русских туристов отправляется в Финляндию за покупками — а попадет в лапы людоедов. Оказывается, есть один день в году, ... 8.7 10 12
Info! Золотая раздача, скачанное не засчитывается.
Торрент: Зарегистрирован [2013-12-13 17:36] · скачан: 133 раз
Статус: √ проверено
Размер: 1.37 GB
Как cкачать? Как скачать Шопинг-тур через торрент | qTorrent

% Раздел Тема Автор DL S | L
Наши фильмы (DVD фильмы) [ 3.51 GB ] Шопинг-тур [2012 DVD5] R5 voovaz Скачать
1 | 0

28-11-2019 20:33  

Отключить всю рекламу на сайте

13-12-2013 19:36 Шопинг-тур Скачать торрент  

Не помню заумное слово-в общем по простому-камера в руках алкоголика,смотреть мягко говоря тяжеловато.Раздающему рахмат. :jest3:pb.wtf



13-12-2013 19:49 Шопинг-тур Скачать торрент  

фильм вроде ничего так, интересныйpb.wtf



23-12-2013 19:04 Шопинг-тур Скачать торрент  

sarcastic бред я думал зомби ахах ну и хреньpb.wtf



    Дорогой пользователь! Огромная просьба, поблагодарите релизера, оцените раздачу и оставьте свои комментарий, если Вы скачали Шопинг-тур через торрент бесплатно! Внесите свою лепту в развитие PiratBit!
    Комментировать посты могут только пользователи прошедшие не сложную регистрацию
    Показать сообщения:    

    Шопинг-тур через торрент
    Скачать бесплатно Шопинг-тур
    Шопинг-тур скачать торрент
    Шопинг-тур смотреть онлайн
    Cкачать фильм Шопинг-тур бесплатно
    Шопинг-тур скачать торрент в хорошем качестве
    Шопинг-тур смотреть онлайн бесплатно в хорошем качестве


    Вы не можете начинать темы
    Вы не можете отвечать на сообщения
    Вы не можете редактировать свои сообщения
    Вы не можете удалять свои сообщения
    Вы не можете голосовать в опросах
    Вы не можете прикреплять файлы к сообщениям
    Вы можете скачивать файлы