Ссылка на приватное зеркало нашего сайта всего за 1$. Внимание количество ограничено!!!

2 сезон

iTunes

1 сезон

1

iTunes

iTunes

iTunes

1 сезон

RePack

30

ИГРА 18+

pack

ВАЖНО

!!Акция!!

Alien_RageХит недели

RePack

MK11
pack

Забери бонус

RePack

jed

!!Акция!!

Alien_Rage

RePack

fifa19

RePack

Assassins Creed: Odyssey

RePack

NEED FOR SPEED™ PAYBACK

4 сезон

9 сезон

Бесстыжие 9 сезон

Все сериалы

все сериалы на PB.wtf

RePack

FAR CRY 5
  

Вместе навсегда / Таиланд / Серии:1-4 (4)(Александр Березань) [2013 г., Боевик, DVB] pb.wtf

Вместе навсегда через торрент pb.wtf

Размер: 3.72 GB | Добавлен: 6 лет 10 мес. назад | Торрент скачан:333 раза
Скачать  

13-12-2013 19:03 Вместе навсегда Скачать торрент  

Вместе навсегда / Таиланд
Год выпуска: 2013
Страна: Украина Film.ua Production
Жанр: Боевик
Продолжительность: 4 x ~ 00:42:25
Перевод: Не требуется
Субтитры: Украинские (вшитые)

Режиссер: Александр Березань

В ролях: Павел Трубинер, София Березань, Анастасия Безрук, Дмитрий Фрид, Ли Берлинская, Азиз Бейшеналиев,

Описание: После смерти Наташи в жизни ее мужа Александра остается единственная радость – их общая дочь Соня. Спустя год после трагедии Саша привозит Соню отпраздновать день рождения в Таиланд, в отель, где много лет назад он познакомился с ее матерью. Но в Таиланде вместо райского отдыха их подстерегают опасности. Дочке тайского мафиози срочно нужен донор сердца, а русская девочка идеально подходит по всем параметрам. Отцы готовы на всё ради счастья своих дочерей. Чья любовь окажется сильнее?

Качество: DVB
Формат: MPEG
Видео кодек: MPEG2
Аудио кодек: MPEG Audio
Видео: MPEG2 Video, 704x576 (4:3) 25.00fps, 2 624 Kbps
Аудио: MPEG Audio, 48000Hz stereo, 192kbps
Релиз от: Серый1779





General
Complete name : E:Вместе навсегда (Таиланд) DVBВместе навсегда (Таиланд) 01_серия_DVB_by_Серый1779.mpg
Format : MPEG-PS
File size : 877 MiB
Duration : 42mn 39s
Overall bit rate mode : Variable
Overall bit rate : 2 873 Kbps

Video
ID : 224 (0xE0)
Format : MPEG Video
Format version : Version 2
Format profile : Main@Main
Format settings, BVOP : No
Format settings, Matrix : Custom
Duration : 42mn 39s
Bit rate mode : Variable
Bit rate : 2 624 Kbps
Maximum bit rate : 15.0 Mbps
Width : 704 pixels
Height : 576 pixels
Display aspect ratio : 4:3
Frame rate : 25.000 fps
Standard : PAL
Color space : YUV
Chroma subsampling : 4:2:0
Bit depth : 8 bits
Scan type : Interlaced
Scan order : Top Field First
Compression mode : Lossy
Bits/(Pixel*Frame) : 0.259
Stream size : 801 MiB (91%)

Audio
ID : 192 (0xC0)
Format : MPEG Audio
Format version : Version 1
Format profile : Layer 2
Duration : 42mn 39s
Bit rate mode : Constant
Bit rate : 192 Kbps
Channel(s) : 2 channels
Sampling rate : 48.0 KHz
Compression mode : Lossy
Stream size : 58.6 MiB (7%)

pb.wtf



Скачать Вместе навсегда через торрент http://pic.kartinco.top/images/6/zsa4e.jpg Скачать фильм Вместе навсегда через торрент бесплантно в хорошем качестве Описание: После смерти Наташи в жизни ее мужа Александра остается единственная радость – их общая дочь Соня. Спустя год после трагедии Саша ... 10 10 13
Info! Золотая раздача, скачанное не засчитывается.
Торрент: Зарегистрирован [2013-12-13 19:03] · скачан: 333 раз
Статус: √ проверено
Размер: 3.72 GB
Как cкачать? Как скачать Вместе навсегда через торрент | qTorrent

% Раздел Тема Автор DL S | L
Наши сериалы [ 2.14 GB ] Вместе навсегда / Таиланд [2013 WEB-DLRip-AVC] bober100 Скачать
1 | 0

28-11-2019 20:33  

Отключить всю рекламу на сайте

    Дорогой пользователь! Огромная просьба, поблагодарите релизера, оцените раздачу и оставьте свои комментарий, если Вы скачали Вместе навсегда через торрент бесплатно! Внесите свою лепту в развитие PiratBit!
    Комментировать посты могут только пользователи прошедшие не сложную регистрацию
    Показать сообщения:    

    Вместе навсегда через торрент
    Скачать бесплатно Вместе навсегда
    Вместе навсегда скачать торрент
    Вместе навсегда смотреть онлайн
    Cкачать фильм Вместе навсегда бесплатно
    Вместе навсегда скачать торрент в хорошем качестве
    Вместе навсегда смотреть онлайн бесплатно в хорошем качестве


    Вы не можете начинать темы
    Вы не можете отвечать на сообщения
    Вы не можете редактировать свои сообщения
    Вы не можете удалять свои сообщения
    Вы не можете голосовать в опросах
    Вы не можете прикреплять файлы к сообщениям
    Вы можете скачивать файлы