Всегда рабочее зеркало без VPN и Proxy просто перед .vidak.icu напиши любое слово или цифру, Пример http://gkso.vidak.icu

MVO

MVO

1 сезон

1

1 сезон

iTunes

1 сезон

13

1 сезон

Deluxe

pack

Рекомендуем

Repack

30

ВАЖНО

RePack

MK11

RePack

jed

RePack

fifa19

RePack

RDR2

RePack

NEED FOR SPEED™ PAYBACK

Кинопоиск HD

6 сезон

 Острые козырьки 6 сезон

Все сериалы

все сериалы на PB.wtf

RePack

FAR CRY 5
  
Magnet ссылка

Дитер Болен - Фильм / Dieter - Der Film (Тоби Генкель, Михаель Шаак) [2006 г., Комедия, биография, мультфильм, DVDRip] DVO pb.wtf

Дитер Болен - Фильм через торрент pb.wtf

Размер: 1.37 GB | Добавлен: 8 лет 7 мес. назад | Торрент скачан:74 раза
Смотреть онлайн Дитер Болен - Фильм | Скачать    Ребята, помогите собрать деньги на оплату серверов!!!

13-12-2013 20:12 Дитер Болен - Фильм Скачать торрент  

Дитер Болен - Фильм
Год выпуска: 2006
Жанр: Комедия, биография, мультфильм
Продолжительность: 01:26:07
Перевод: Профессиональный двухголосый Esculap(chik) и DJ Sergeich

Режиссер: Тоби Генкель Михаель Шаак
Продюссер: Ева Холтманн, Таня Рейчерт-Фасилидес, Михаэль Шаак
Сценарий: Рольф Дикманн, Philip Körting

Премьера в Германии: 10 Апреля 2006
Премьера в России:10 Апреля 2010



В ролях: Дитер Болен, Бертрам Хейс, Оливер Боотчер, Андреас Кауфман, Роберт Мисслер, Рувь Рокенчауд

Описание: Став самым популярным человеком Германии в 2004 году, основатель легендарных групп Modern Talking и Blue System, продюсер легендарной C.C.Catch и лучшего альбома Chris Norman - Дитер Болен, увековечил историю своего восхождения на столь почётный пост анимационным фильмом, вкраце рассказывающем о его жизни.Лента, снятая по мотивам автобиографической книги "Ничего, кроме правды", полна известных персонажей и юмора. В красочном анимационном стиле вы сможете увидеть, что жизнь Болена с пелёнок (и даже до них) полна разочарований, неудачных встреч и неожиданных поворотов. Несмотря на это, Дитер добивается головокружительного успеха, снова и снова возвращая себе присвоенное недругами.
Невостребованный российскими прокатчиками фильм, без малого 4 года оставался непонятным для широкой публики. Но в конце концов силами и средствами поклонников творчества Дитера Болена с сайта
www.Modern-Talking.ru
мультфильм обрёл русскую озвучку и стал доступен всем желающим!
Приятного просмотра!

Качество: DVDRip
Формат: AVI
Видео кодек: XviD
Аудио кодек: AC3
Видео: Xvid 720x400, 25.00fps,1 435 Kbps
Аудио#1: Dolby AC3, 48000Hz 6ch, 384kbps Русский
Аудио#2: Dolby AC3, 48000Hz 6ch, 448kbps Немецкий
Релиз от: Gre2nDragon





General
Complete name : E:Dieter.-.Der.Film.2009.XviD.DVDRip.avi
Format : AVI
Format/Info : Audio Video Interleave
File size : 1.37 GiB
Duration : 1h 26mn
Overall bit rate : 2 281 Kbps
Writing application : VirtualDubMod 1.5.4.1 (build 2178/release)
Writing library : VirtualDubMod build 2178/release

Video
ID : 0
Format : MPEG-4 Visual
Format profile : Advanced [email protected]
Format settings, BVOP : 1
Format settings, QPel : No
Format settings, GMC : No warppoints
Format settings, Matrix : Default (H.263)
Codec ID : XVID
Codec ID/Hint : XviD
Duration : 1h 26mn
Bit rate : 1 435 Kbps
Width : 720 pixels
Height : 400 pixels
Display aspect ratio : 16:9
Frame rate : 25.000 fps
Color space : YUV
Chroma subsampling : 4:2:0
Bit depth : 8 bits
Scan type : Progressive
Compression mode : Lossy
Bits/(Pixel*Frame) : 0.199
Stream size : 884 MiB (63%)
Writing library : XviD 1.2.1 (UTC 2008-12-04)

Audio #1
ID : 1
Format : AC-3
Format/Info : Audio Coding 3
Mode extension : CM (complete main)
Codec ID : 2000
Duration : 1h 26mn
Bit rate mode : Constant
Bit rate : 384 Kbps
Channel(s) : 6 channels
Channel positions : Front: L C R, Side: L R, LFE
Sampling rate : 48.0 KHz
Bit depth : 16 bits
Compression mode : Lossy
Stream size : 237 MiB (17%)
Alignment : Split accross interleaves
Interleave, duration : 40 ms (1.00 video frame)
Interleave, preload duration : 500 ms

Audio #2
ID : 2
Format : AC-3
Format/Info : Audio Coding 3
Mode extension : CM (complete main)
Codec ID : 2000
Duration : 1h 26mn
Bit rate mode : Constant
Bit rate : 448 Kbps
Channel(s) : 6 channels
Channel positions : Front: L C R, Side: L R, LFE
Sampling rate : 48.0 KHz
Bit depth : 16 bits
Compression mode : Lossy
Stream size : 276 MiB (20%)
Alignment : Split accross interleaves
Interleave, duration : 40 ms (1.00 video frame)
Interleave, preload duration : 500 ms

pb.wtf



Скачать Дитер Болен - Фильм через торрент https://pic1.kartinco.top/images/61/5yht8.jpg Скачать, смотреть онлайн Дитер Болен - Фильм бесплантно в хорошем качестве Описание: Став самым популярным человеком Германии в 2004 году, основатель легендарных групп Modern Talking и Blue System, продюсер ... 10 10 10
Info! Золотая раздача, скачанное не засчитывается.
Торрент: Зарегистрирован [2013-12-13 20:12] · скачан: 74 раз
Статус: √ проверено
Размер: 1.37 GB
Как cкачать? Как скачать Дитер Болен - Фильм через торрент | UTorrent

28-11-2019 20:33  

Отключить вcю реклaмy на сайте

    Дорогой пользователь! Огромная просьба, поблагодарите релизера, оцените раздачу и оставьте свои комментарий, если Вы скачали Дитер Болен - Фильм через торрент бесплатно!
    Комментировать посты могут только пользователи прошедшие не сложную регистрацию
    Показать сообщения:    

    Дитер Болен - Фильм через торрент
    Скачать бесплатно Дитер Болен - Фильм
    Дитер Болен - Фильм скачать торрент
    Дитер Болен - Фильм смотреть онлайн
    Cкачать фильм Дитер Болен - Фильм бесплатно
    Дитер Болен - Фильм скачать торрент в хорошем качестве
    Дитер Болен - Фильм смотреть онлайн бесплатно в хорошем качестве


    Вы не можете начинать темы
    Вы не можете отвечать на сообщения
    Вы не можете редактировать свои сообщения
    Вы не можете удалять свои сообщения
    Вы не можете голосовать в опросах
    Вы не можете прикреплять файлы к сообщениям
    Вы можете скачивать файлы