2 сезон

iTunes

MVO

1

2 сезон

iTunes

iTunes

1 сезон

RePack

30

Новинка

ВАЖНО

ИГРА 18+

pack

RePack

MK11
pack

Легкие деньги

RePack

jed

RePack

fifa19

RePack

RDR2

RePack

NEED FOR SPEED™ PAYBACK

4 сезон

9 сезон

Бесстыжие 9 сезон

Все сериалы

все сериалы на PB.wtf

RePack

FAR CRY 5

Anonymous, доброе утро, мы не успеваем собрать деньги на оплату серверов за декабрь и январь, помогите нам пожалуйста в это трудное время. В качестве благодарности мы отключим Вам всю рекламу на сайте (укажите свой ник в строку Ваше имя)!

×
  
Magnet ссылка

Эра динозавров / Age of Dinosaurs (Джозеф Дж. Лосон / Joseph J. Lawson) [ 2013 , США , фантастика, боевик , HDRip ]MVO pb.wtf

Эра динозавров через торрент pb.wtf

Размер: 1.37 GB | Добавлен: 7 лет 1 мес. назад | Торрент скачан:2311 раз
Скачать  

14-12-2013 01:22 Эра динозавров Скачать торрент  

Эра динозавров / Age of Dinosaurs
«Назад от вымирания!»

Год выпуска: 2013
Страна: США
Жанр: фантастика, боевик
Продолжительность: 01:28:24
Перевод: Профессиональный (многоголосый, закадровый)
Субтитры: Нет

Режиссер: Джозеф Дж. Лосон / Joseph J. Lawson
Сценарий: Хэнк Вун мл. / Hank Woon Jr.
Продюсер: Дэвид Майкл Лэтт / David Michael Latt, Пол Бейлс / Paul Bales, Michael Meilander, Дэвид Римави / David Rimawi
Оператор: Ричард Дж. Виалет / Richard J. Vialet
Композитор: Крис Риденауа / Chris Ridenhour

Трит Уильямс (Gabe Jacobs), Ронни Кокс (Justin), Джиллиан Роуз Рид (Jade Jacobs), Джошуа Майкл Аллен (Craig Carson), Макс Ария (Leo Karst), Джулия Пол (Leanna), Артур Ричардсон (Sgt. Mike), Хосе Росете (Doug), Лаура Тюни (Kim Evans), Roani Whent (Nile), Джо Бон (News Pilot), Келли Долан (Technican Rosario)

Мировая премьера: 19 мая 2013

Описание:Используя технологию регенерации плоти, биотехнологическая фирма создаёт выставку с настоящими живыми динозаврами. Но животные сбегают из музея начинаются терроризировать Лос-Анджелес. Бывший пожарный пытается спасти свою дочь из хаоса, к которому привела выставка.

Рейтинг
kinopoisk.ru: 3.846 (49)
imdb.com: 3.00 (781)

Качество: HDRip
Формат: AVI
Видео кодек: XviD
Аудио кодек: AC3
Видео: 2011 Кбит/сек, 720*400 (16:9), в 23,976 кадра/сек, MPEG-4 Visual (XviD)
Аудио: русский, 192 Кбит/сек, 48,0 КГц, 16 бит, 2 канала, AC-3

Общее
Кол-во : 284
Кол-во потоков такого типа : 1
Тип потока : General
Тип потока : Общее
Идентификатор типа потока : 0
Inform : AVI: 1,37 Гбайт, 1 ч. 28 м.
Кол-во видеопотоков : 1
Кол-во аудиопотоков : 1
Video_Format_List : MPEG-4 Visual
Video_Format_WithHint_List : MPEG-4 Visual (XviD)
Видеокодеки : XviD
Audio_Format_List : AC-3
Audio_Format_WithHint_List : AC-3
Аудиокодеки : AC3
Полное имя : H:ТОРРЕНТЫЭра.avi
Имя папки : H:ТОРРЕНТЫ
Имя файла : Эра
Расширение : avi
Формат : AVI
Формат : AVI
Формат/Информация : Audio Video Interleave
Формат/Используется в : avi
Коммерческое название : AVI
Интернет-тип носителя : video/vnd.avi
Чередующаяся : Yes
Кодек : AVI
Кодек : AVI
Кодек/Информация : Audio Video Interleave
Кодек/Используется в : avi
Размер файла : 1466853376
Размер файла : 1,37 Гбайт
Размер файла : 1 Гбайт
Размер файла : 1,4 Гбайт
Размер файла : 1,37 Гбайт
Размер файла : 1,366 Гбайт
Продолжительность : 5304305
Продолжительность : 1 ч. 28 м.
Продолжительность : 1 ч. 28 м. 24 с. 305 мс.
Продолжительность : 1 ч. 28 м.
Продолжительность : 01:28:24.305
Общий поток : 2212321
Общий поток : 2212 Кбит/сек
Размер потока : 6306125
Размер потока : 6,01 Мбайт (0%)
Размер потока : 6 Мбайт
Размер потока : 6,0 Мбайт
Размер потока : 6,01 Мбайт
Размер потока : 6,014 Мбайт
Размер потока : 6,01 Мбайт (0%)
Пропорции потока : 0.00430
Дата файла : UTC 2013-12-14 00:22:20.652
Дата файла (местная) : 2013-12-14 07:22:20.652
Дата изменения файла : UTC 2013-12-14 00:28:51.941
Дата изменения файла (местная) : 2013-12-14 07:28:51.941
Программа кодирования : VirtualDubMod 1.5.10.2 (build 2540/release)
Библиотека кодирования : VirtualDubMod build 2540/release
Библиотека кодирования : VirtualDubMod build 2540/release

Видео
Кол-во : 271
Кол-во потоков такого типа : 1
Тип потока : Video
Тип потока : Видео
Идентификатор типа потока : 0
StreamOrder : 0
Inform : 2011 Кбит/сек, 720*400 (16:9), в 23,976 кадра/сек, MPEG-4 Visual (XviD) (Advanced Simple@L5) (BVOP2)
Идентификатор : 0
Идентификатор : 0
Формат : MPEG-4 Visual
Коммерческое название : MPEG-4 Visual
Профиль формата : Advanced Simple@L5
Настройки формата : BVOP2
Параметр BVOP формата : 2
Параметр BVOP формата : 2
Параметр QPel формата : No
Параметр QPel формата : Нет
Параметр GMC формата : 0
Параметр GMC формата : Без точки перехода
Параметр матрицы формата : Default (MPEG)
Параметр матрицы формата : Default (MPEG)
Интернет-тип носителя : video/MP4V-ES
Идентификатор кодека : XVID
Идентификатор кодека/Подсказка : XviD
Идентификатор кодека/Ссылка : http://mediaarea.net/XVID
Кодек : XVID
Кодек : XviD
Кодек/Семейство : MPEG-4V
Кодек/Информация : XviD project
Кодек/Ссылка : http://www.xvid.org/Downloads.15.0.html
Кодек/CC : XVID
Профиль кодека : Advanced Simple@L5
Настройки кодека : BVOP
Параметр пакетного потока данных кодека : No
Параметр BVOP кодека : Yes
Параметр QPel кодека : No
Параметр GMC кодека : 0
Параметр GMC кодека : Без точки перехода
Параметр матрицы кодека : Default (MPEG)
Продолжительность : 5304299
Продолжительность : 1 ч. 28 м.
Продолжительность : 1 ч. 28 м. 24 с. 299 мс.
Продолжительность : 1 ч. 28 м.
Продолжительность : 01:28:24.299
Битрейт : 2010811
Битрейт : 2011 Кбит/сек
Ширина : 720
Ширина : 720 пикселей
Высота : 400
Высота : 400 пикселей
Пропорции пикселя : 1.000
Соотношение сторон : 1.800
Соотношение сторон : 16:9
Частота кадров : 23.976
Частота кадров : 23,976 кадра/сек
Счётчик кадров : 127176
Разрешение : 8
Разрешение : 8 бит
Колориметрия : 4:2:0
Цветовое пространство : YUV
Субдискретизация насыщенности : 4:2:0
Битовая глубина : 8
Битовая глубина : 8 бит
Тип развёртки : Progressive
Тип развёртки : Прогрессивная
Переплетение : PPF
Переплетение : Прогрессивная
Метод сжатия : Lossy
Метод сжатия : С потерями
Бит/(Пиксели*Кадры) : 0.291
Задержка : 0
Задержка : 00:00:00.000
Размер потока : 1333243948
Размер потока : 1,24 Гбайт (91%)
Размер потока : 1 Гбайт
Размер потока : 1,2 Гбайт
Размер потока : 1,24 Гбайт
Размер потока : 1,242 Гбайт
Размер потока : 1,24 Гбайт (91%)
Пропорции потока : 0.90891
Библиотека кодирования : XviD0050
Библиотека кодирования : XviD 1.2.1 (UTC 2008-12-04)
Библиотека кодирования/Имя : XviD
Библиотека кодирования/Version : 1.2.1
Библиотека кодирования/Дата : UTC 2008-12-04

Аудио
Кол-во : 244
Кол-во потоков такого типа : 1
Тип потока : Audio
Тип потока : Аудио
Идентификатор типа потока : 0
StreamOrder : 1
Inform : 192 Кбит/сек, 48,0 КГц, 16 бит, 2 канала, AC-3
Идентификатор : 1
Идентификатор : 1
Формат : AC-3
Формат/Информация : Audio Coding 3
Коммерческое название : AC-3
Расширение режима : CM (complete main)
Параметр Endianness формата : Big
Идентификатор кодека : 2000
Кодек : AC3
Кодек : AC3
Кодек/Семейство : AC3
Кодек/Информация : Dolby AC3
Кодек/CC : 2000
Продолжительность : 5304305
Продолжительность : 1 ч. 28 м.
Продолжительность : 1 ч. 28 м. 24 с. 305 мс.
Продолжительность : 1 ч. 28 м.
Продолжительность : 01:28:24.305
Вид битрейта : CBR
Вид битрейта : Постоянный
Битрейт : 192000
Битрейт : 192 Кбит/сек
Каналы : 2
Каналы : 2 канала
Расположение каналов : Front: L R
Расположение каналов : 2/0/0
Частота : 48000
Частота : 48,0 КГц
Количество образцов : 254606640
Разрешение : 16
Разрешение : 16 бит
Битовая глубина : 16
Битовая глубина : 16 бит
Метод сжатия : Lossy
Метод сжатия : С потерями
Задержка : 0
Задержка : 00:00:00.000
Задержка в оригинале : Stream
Задержка в оригинале : 'Сырой' поток
Задержка видео : 0
Задержка видео : 0
Размер потока : 127303303
Размер потока : 121 Мбайт (9%)
Размер потока : 121 Мбайт
Размер потока : 121 Мбайт
Размер потока : 121 Мбайт
Размер потока : 121,4 Мбайт
Размер потока : 121 Мбайт (9%)
Пропорции потока : 0.08679
Выравнивание : Split
Выравнивание : Разделение по промежуткам
Продолжительность промежутка : 1.00
Продолжительность промежутка : 42
Продолжительность промежутка : 42 мс. (1,00 видеокадр)
Время предзагрузки промежутка : 500
Время предзагрузки промежутка : 500 мс.
bsid : 4
dialnorm : -31
dialnorm/String : -31 dB
compr : -0.28
compr/String : -0.28 dB
dsurmod : 0
acmod : 2
lfeon : 0
dialnorm_Average : -31
dialnorm_Average/String : -31 dB
dialnorm_Minimum : -31
dialnorm_Minimum/String : -31 dB
dialnorm_Maximum : -31
dialnorm_Maximum/String : -31 dB
dialnorm_Count : 405
compr_Average : -0.92
compr_Average/String : -0.92 dB
compr_Minimum : -4.08
compr_Minimum/String : -4.08 dB
compr_Maximum : -0.28
compr_Maximum/String : -0.28 dB
compr_Count : 405


скриншот  скриншот  скриншот  скриншот  скриншот  скриншот  скриншот  



pb.wtf



Скачать Эра динозавров через торрент http://trueimages.ru/img/2e/37/34eaba25.jpg Скачать фильм Эра динозавров через торрент бесплантно в хорошем качестве Описание:Используя технологию регенерации плоти, биотехнологическая фирма создаёт выставку с настоящими живыми динозаврами. Но животные ... 9.1 10 83
Info! Золотая раздача, скачанное не засчитывается.
Торрент: Зарегистрирован [2013-12-14 01:22] · скачан: 2 311 раз
Статус: √ проверено
Размер: 1.37 GB
Как cкачать? Как скачать Эра динозавров через торрент | UTorrent

28-11-2019 20:33  

Отключить всю рекламу на сайте

14-12-2013 08:42 Эра динозавров Скачать торрент  

От режиссёра снявшего "Нацисты в центре земли". pb.wtf



14-12-2013 10:18 Эра динозавров Скачать торрент  

Syfy нервно курит в сторонке :omg:pb.wtf



14-12-2013 15:51 Эра динозавров Скачать торрент  

Asylum такой Assylum =)pb.wtf



15-12-2013 08:32 Эра динозавров Скачать торрент  

Третий скрин на парк юрского периода сильно смахиваетpb.wtf



16-12-2013 07:36 Эра динозавров Скачать торрент  

ну и как кино?pb.wtf



18-12-2013 13:07 Эра динозавров Скачать торрент  

на 1 скрине динозавр ванну горячую принимает pb.wtf



18-12-2013 13:20 Эра динозавров Скачать торрент  

фигня полнаяpb.wtf



26-12-2013 12:02 Эра динозавров Скачать торрент  

Бред полный не смотритеpb.wtf



02-01-2014 11:52 Эра динозавров Скачать торрент  

Опять тв3 снимал похоже pb.wtf



10-01-2014 11:24 Эра динозавров Скачать торрент  

серенький pb.wtf



    Дорогой пользователь! Огромная просьба, поблагодарите релизера, оцените раздачу и оставьте свои комментарий, если Вы скачали Эра динозавров через торрент бесплатно! Внесите свою лепту в развитие PiratBit!
    Комментировать посты могут только пользователи прошедшие не сложную регистрацию
    Показать сообщения:    

    Эра динозавров через торрент
    Скачать бесплатно Эра динозавров
    Эра динозавров скачать торрент
    Эра динозавров смотреть онлайн
    Cкачать фильм Эра динозавров бесплатно
    Эра динозавров скачать торрент в хорошем качестве
    Эра динозавров смотреть онлайн бесплатно в хорошем качестве


    Вы не можете начинать темы
    Вы не можете отвечать на сообщения
    Вы не можете редактировать свои сообщения
    Вы не можете удалять свои сообщения
    Вы не можете голосовать в опросах
    Вы не можете прикреплять файлы к сообщениям
    Вы можете скачивать файлы