Ссылка на приватное зеркало нашего сайта всего за 1$. Внимание количество ограничено!!!

2 сезон

iTunes

1 сезон

1

2 сезон

2 сезон

iTunes

1 сезон

RePack

30

Новинка

ВАЖНО

ИГРА 18+

pack

RePack

MK11
pack

Забери бонус

RePack

jed

!!Акция!!

Alien_Rage

RePack

fifa19

RePack

Assassins Creed: Odyssey

RePack

NEED FOR SPEED™ PAYBACK

4 сезон

9 сезон

Бесстыжие 9 сезон

Все сериалы

все сериалы на PB.wtf

RePack

FAR CRY 5
  

Молодой детектив Ди: Восстание морского дракона / Young Detective Dee: Rise of the Sea Dragon (Цуй Харк / Tsui Hark) [ 2013 , Китай, Гонконг , боевик, триллер, детектив , WEB-DL720 ]DVO Любительский pb.wtf

Молодой детектив Ди: Восстание морского дракона через торрент pb.wtf

Размер: 2.02 GB | Добавлен: 6 лет 11 мес. назад | Торрент скачан:358 раз
Скачать  

14-12-2013 03:35 Молодой детектив Ди: Восстание морского дракона Скачать торрент  

Молодой детектив Ди: Восстание морского дракона / Young Detective Dee: Rise of the Sea Dragon

Год выпуска: 2013
Страна: Китай, Гонконг
Жанр: боевик, триллер, детектив
Продолжительность: 02:08:48
Перевод: Любительский (двухголосый)[Ольга Гринтиева и Дмитрий Познанский]
Субтитры: вшитые китайские субтитры

Режиссер: Цуй Харк / Tsui Hark
Сценарий: Цзялу Чжан / Jialu Zhang, Чэнь Ко-фу / Chen Kuo-fu, Цуй Харк / Tsui Hark
Продюсер: Чэнь Ко-фу / Chen Kuo-fu, Нансун Ши / Nansun Shi, Цуй Харк / Tsui Hark, Ван Чжунцзюнь / Wang Zhongjun
Оператор: Санг Фай Чои / Sung Fai Choi
Композитор: Кэндзи Кавай / Kenji Kawai

Анджела Бейби, Марк Чао (Detective Dee), Чэнь Кунь, Уилльям Фэн (Yuchi Zhenjin), Дун Ху, Ким Бом (Yuan Zhen), Карина Лау (Empress Wu Zetian), Линь Гэн Синь, Zhaoxu Lin, Цзинцзин Ма, Чиэнь Шэн

Сборы в мире: $99 500 000

Мировая премьера: 26 сентября 2013

Описание:Молодому детективу Ди и его более опытному товарищу Ючи императрица Ву поручает расследовать таинственные случаи появления на улицах ночной столицы морского чудовища. Занимаясь этим делом, герои вскоре узнают о настоящем заговоре, направленном на уничтожение всей правящей верхушки страны. Им также становится известно, что на соседнем острове принц, чье царство было захвачено предыдущим императором, готовит армию для нападения на столицу. А тем временем из океанских глубин поднимается настоящий морской дракон...

Рейтинг
imdb.com: 6.40 (408)

Качество: WEB-DL720
Формат: MKV
Видео кодек: AVC
Аудио кодек: MP3
Видео: 2053 Кбит/сек, 1280*536 (2,40:1), в 29,970 кадров/сек, AVC
Аудио: Русский 192 Кбит/сек, 48,0 КГц, 2 канала, MPEG Audio (MP3 )

Общее
Кол-во : 284
Кол-во потоков такого типа : 1
Тип потока : General
Тип потока : Общее
Идентификатор типа потока : 0
Inform : Matroska: 2,02 Гбайт, 2 ч. 8 м.
Уникальный идентификатор : 250294801729490998587604655706519073288
Уникальный идентификатор : 250294801729490998587604655706519073288 (0xBC4D067DD4BEF992973843D11E877208)
Кол-во видеопотоков : 1
Кол-во аудиопотоков : 1
Video_Format_List : AVC
Video_Format_WithHint_List : AVC
Видеокодеки : AVC
Video_Language_List : English
Audio_Format_List : MPEG Audio
Audio_Format_WithHint_List : MPEG Audio (MP3 )
Аудиокодеки : MPEG-1 Audio layer 3
Audio_Language_List : English
Полное имя : H:ТОРРЕНТЫДи.mkv
Имя папки : H:ТОРРЕНТЫ
Имя файла : Ди
Расширение : mkv
Формат : Matroska
Формат : Matroska
Формат/Ссылка : http://packs.matroska.org/
Формат/Используется в : mkv mk3d mka mks
Коммерческое название : Matroska
Версия формата : Version 2
Кодек : Matroska
Кодек : Matroska
Кодек/Ссылка : http://packs.matroska.org/
Кодек/Используется в : mkv mk3d mka mks
Размер файла : 2170249492
Размер файла : 2,02 Гбайт
Размер файла : 2 Гбайт
Размер файла : 2,0 Гбайт
Размер файла : 2,02 Гбайт
Размер файла : 2,021 Гбайт
Продолжительность : 7728192
Продолжительность : 2 ч. 8 м.
Продолжительность : 2 ч. 8 м. 48 с. 192 мс.
Продолжительность : 2 ч. 8 м.
Продолжительность : 02:08:48.192
Общий поток : 2246579
Общий поток : 2247 Кбит/сек
Размер потока : 43187501
Размер потока : 41,2 Мбайт (2%)
Размер потока : 41 Мбайт
Размер потока : 41 Мбайт
Размер потока : 41,2 Мбайт
Размер потока : 41,19 Мбайт
Размер потока : 41,2 Мбайт (2%)
Пропорции потока : 0.01990
Дата кодирования : UTC 2013-12-09 10:35:48
Дата файла : UTC 2013-12-14 03:03:31.730
Дата файла (местная) : 2013-12-14 10:03:31.730
Дата изменения файла : UTC 2013-12-14 03:13:51.600
Дата изменения файла (местная) : 2013-12-14 10:13:51.600
Программа кодирования : mkvmerge v5.7.0 ('The Whirlwind') built on Jul 8 2012 20:08:51
Библиотека кодирования : libebml v1.2.3 + libmatroska v1.3.0
Библиотека кодирования : libebml v1.2.3 + libmatroska v1.3.0

Видео
Кол-во : 271
Кол-во потоков такого типа : 1
Тип потока : Video
Тип потока : Видео
Идентификатор типа потока : 0
StreamOrder : 0
Inform : 2053 Кбит/сек, 1280*536 (2,40:1), в 29,970 кадров/сек, AVC (Header stripping) (High@L3.1) (CABAC / 8 Ref Frames)
Идентификатор : 1
Идентификатор : 1
Уникальный идентификатор : 2606681054486346144
Формат : AVC
Формат/Информация : Advanced Video Codec
Формат/Ссылка : http://developers.videolan.org/x264.html
Коммерческое название : AVC
Профиль формата : High@L3.1
Настройки формата : CABAC / 8 Ref Frames
Параметр CABAC формата : Yes
Параметр CABAC формата : Да
Параметр ReFrames формата : 8
Параметр ReFrames формата : 8 кадров
Интернет-тип носителя : video/H264
Режим смешивания : Header stripping
Идентификатор кодека : V_MPEG4/ISO/AVC
Идентификатор кодека/Ссылка : http://ffdshow-tryout.sourceforge.net/
Кодек : V_MPEG4/ISO/AVC
Кодек : AVC
Кодек/Семейство : AVC
Кодек/Информация : Advanced Video Codec
Кодек/Ссылка : http://ffdshow-tryout.sourceforge.net/
Профиль кодека : High@L3.1
Настройки кодека : CABAC / 8 Ref Frames
Параметр CABAC кодека : Yes
Codec_Settings_RefFrames : 8
Продолжительность : 7728195
Продолжительность : 2 ч. 8 м.
Продолжительность : 2 ч. 8 м. 48 с. 195 мс.
Продолжительность : 2 ч. 8 м.
Продолжительность : 02:08:48.195
Битрейт : 2053000
Битрейт : 2053 Кбит/сек
Ширина : 1280
Ширина : 1280 пикселей
Высота : 536
Высота : 536 пикселей
Пропорции пикселя : 1.000
Соотношение сторон : 2.388
Соотношение сторон : 2,40:1
Режим частоты кадров : CFR
Режим частоты кадров : Постоянный
Частота кадров : 29.970
Частота кадров : 29,970 кадров/сек
Счётчик кадров : 231614
Разрешение : 8
Разрешение : 8 бит
Колориметрия : 4:2:0
Цветовое пространство : YUV
Субдискретизация насыщенности : 4:2:0
Битовая глубина : 8
Битовая глубина : 8 бит
Тип развёртки : Progressive
Тип развёртки : Прогрессивная
Переплетение : PPF
Переплетение : Прогрессивная
Бит/(Пиксели*Кадры) : 0.100
Задержка : 0
Задержка : 00:00:00.000
Задержка в оригинале : Container
Задержка в оригинале : Контейнер
Размер потока : 1941585383
Размер потока : 1,81 Гбайт (89%)
Размер потока : 2 Гбайт
Размер потока : 1,8 Гбайт
Размер потока : 1,81 Гбайт
Размер потока : 1,808 Гбайт
Размер потока : 1,81 Гбайт (89%)
Пропорции потока : 0.89464
Библиотека кодирования : x264 - core 130 r2273 b3065e6
Библиотека кодирования : x264 core 130 r2273 b3065e6
Библиотека кодирования/Имя : x264
Библиотека кодирования/Version : core 130 r2273 b3065e6
Настройки программы : cabac=1 / ref=8 / deblock=1:-2:-1 / analyse=0x3:0x113 / me=umh / subme=10 / psy=1 / psy_rd=1.00:0.20 / mixed_ref=1 / me_range=24 / chroma_me=1 / trellis=2 / 8x8dct=1 / cqm=0 / deadzone=21,11 / fast_pskip=0 / chroma_qp_offset=-3 / threads=6 / lookahead_threads=1 / sliced_threads=0 / nr=0 / decimate=0 / interlaced=0 / bluray_compat=0 / constrained_intra=0 / bframes=3 / b_pyramid=2 / b_adapt=2 / b_bias=0 / direct=3 / weightb=1 / open_gop=0 / weightp=2 / keyint=250 / keyint_min=25 / scenecut=40 / intra_refresh=0 / rc_lookahead=60 / rc=2pass / mbtree=1 / bitrate=2053 / ratetol=1.0 / qcomp=0.60 / qpmin=0 / qpmax=69 / qpstep=4 / cplxblur=20.0 / qblur=0.5 / vbv_maxrate=17500 / vbv_bufsize=14000 / nal_hrd=none / ip_ratio=1.40 / aq=1:1.00
Default : Yes
Default : Да
Forced : No
Forced : Нет

Аудио
Кол-во : 222
Кол-во потоков такого типа : 1
Тип потока : Audio
Тип потока : Аудио
Идентификатор типа потока : 0
StreamOrder : 1
Inform : 192 Кбит/сек, 48,0 КГц, 2 канала, MPEG Audio (MP3 ) (Header stripping) (Version 1) (Layer 3) (Joint stereo)
Идентификатор : 2
Идентификатор : 2
Уникальный идентификатор : 9925984799247434163
Формат : MPEG Audio
Коммерческое название : MPEG Audio
Версия формата : Version 1
Профиль формата : Layer 3
Настройки формата : Joint stereo
Режим : Joint stereo
Интернет-тип носителя : audio/mpeg
Режим смешивания : Header stripping
Идентификатор кодека : A_MPEG/L3
Идентификатор кодека/Подсказка : MP3
Идентификатор кодека/Ссылка : http://www.iis.fraunhofer.de/amm/index.html
Кодек : MPA1L3
Кодек : MPEG-1 Audio layer 3
Кодек/Семейство : MPEG-A
Кодек/Информация : MPEG1 or 2 Audio Layer 3
Кодек/Ссылка : http://www.iis.fraunhofer.de/amm/index.html
Профиль кодека : Joint stereo
Продолжительность : 7728192
Продолжительность : 2 ч. 8 м.
Продолжительность : 2 ч. 8 м. 48 с. 192 мс.
Продолжительность : 2 ч. 8 м.
Продолжительность : 02:08:48.192
Вид битрейта : CBR
Вид битрейта : Постоянный
Битрейт : 192000
Битрейт : 192 Кбит/сек
Каналы : 2
Каналы : 2 канала
Частота : 48000
Частота : 48,0 КГц
Количество образцов : 370953216
Метод сжатия : Lossy
Метод сжатия : С потерями
Задержка : 0
Задержка : 00:00:00.000
Задержка в оригинале : Container
Задержка в оригинале : Контейнер
Задержка видео : 0
Задержка видео : 0
Размер потока : 185476608
Размер потока : 177 Мбайт (9%)
Размер потока : 177 Мбайт
Размер потока : 177 Мбайт
Размер потока : 177 Мбайт
Размер потока : 176,9 Мбайт
Размер потока : 177 Мбайт (9%)
Пропорции потока : 0.08546
Default : Yes
Default : Да
Forced : No
Forced : Нет


скриншот  скриншот  скриншот  скриншот  скриншот  



pb.wtf



Скачать Молодой детектив Ди: Восстание морского дракона через торрент http://trueimages.ru/img/1d/8b/d0bcba25.jpg Скачать фильм Молодой детектив Ди: Восстание морского дракона через торрент бесплантно в хорошем качестве Описание:Молодому детективу Ди и его более опытному товарищу Ючи императрица Ву поручает расследовать таинственные случаи появления на ... 10 10 17
Info! Золотая раздача, скачанное не засчитывается.
Торрент: Зарегистрирован [2013-12-14 03:35] · скачан: 358 раз
Статус: √ проверено
Размер: 2.02 GB
Как cкачать? Как скачать Молодой детектив Ди: Восстание морского дракона через торрент | qTorrent

28-11-2019 20:33  

Отключить всю рекламу на сайте

14-12-2013 03:56 Молодой детектив Ди: Восстание морского дракона Скачать торрент  

Не туда. Прошу прощения! pb.wtf



27-12-2013 14:45 Молодой детектив Ди: Восстание морского дракона Скачать торрент  

уже есть в 3D!pb.wtf



    Дорогой пользователь! Огромная просьба, поблагодарите релизера, оцените раздачу и оставьте свои комментарий, если Вы скачали Молодой детектив Ди: Восстание морского дракона через торрент бесплатно! Внесите свою лепту в развитие PiratBit!
    Комментировать посты могут только пользователи прошедшие не сложную регистрацию
    Показать сообщения:    

    Молодой детектив Ди: Восстание морского дракона через торрент
    Скачать бесплатно Молодой детектив Ди: Восстание морского дракона
    Молодой детектив Ди: Восстание морского дракона скачать торрент
    Молодой детектив Ди: Восстание морского дракона смотреть онлайн
    Cкачать фильм Молодой детектив Ди: Восстание морского дракона бесплатно
    Молодой детектив Ди: Восстание морского дракона скачать торрент в хорошем качестве
    Молодой детектив Ди: Восстание морского дракона смотреть онлайн бесплатно в хорошем качестве


    Вы не можете начинать темы
    Вы не можете отвечать на сообщения
    Вы не можете редактировать свои сообщения
    Вы не можете удалять свои сообщения
    Вы не можете голосовать в опросах
    Вы не можете прикреплять файлы к сообщениям
    Вы можете скачивать файлы