Присоединяйтесь к нам в Telegram!, здесь всегда актуальный адрес сайта, оперативная поддержка и многое другое!!

>

5.9

iTunes

7.4

iTunes

9.4

1 сезон

1

7.4

2 сезон

7.2

iTunes

7.3

1 сезон

13

6.1

iTunes

8.3

GOG

30

ULTIMATE

pack

9.9

Лицензия

ВАЖНО

ИГРА 18+

pack

7.3

RePack

MK11

7.7

RePack

jed

7.8

RePack

fifa19

8.5

RePack

RDR2

RePack

NEED FOR SPEED™ PAYBACK

5 сезон

9 сезон

Бесстыжие 9 сезон

Все сериалы

все сериалы на PB.wtf

RePack

FAR CRY 5

Anonymous, доброй ночи, мы катастрофически не успеваем собрать деньги на оплату серверов, помогите нам пожалуйста 5,10,15р., для нас важна любая помощь . В качестве благодарности мы отключим Вам всю рекламу на сайте (укажите свой ник в строку Ваше имя)!

×
  
Magnet ссылка

Видеография Dschinghis Khan / Dschinghis Khan - Video collection [2006 г., Pop, Disco, DVDRip] pb.wtf

Видеография Dschinghis Khan через торрент pb.wtf

Размер: 667 MB | Добавлен: 7 лет 11 мес. назад | Торрент скачан:104 раза
Смотреть онлайн Видеография Dschinghis Khan | Скачать    Ребята, помогите собрать деньги на оплату серверов!!!

14-12-2013 07:03 Видеография Dschinghis Khan Скачать торрент  

Видеография Dschinghis Khan
Год выпуска: 2006
Страна: ФРГ
Жанр: Pop, Disco
Продолжительность: 00:33:40
Перевод: Оригинал

В ролях: Dschinghis Khan

Описание: Группа была создана буквально за 6 недель до национального немецкого отбора на Евровидение (конец января-начало февраля 1979 года), куда еще в конце 1978 года композитор Ральф Зигель представил одноименную песню (на демо-версии пел сам Ральф Зигель). После победы в национальном отборе, группе доверили представить ФРГ на конкурсе «Евровидение», где она заняла 4-е место с песней «Dschinghis Khan».
В 1988 году бывший вокалист «Dschinghis Khan» Лесли Мандоки и вокалистка венгерской поп-группы "Neoton Familia" Эва Чепреги совместно исполнили официальную песню «Korea» на открытии Олимпийских Игр в Сеуле.

В 1999 году четыре композиции с диска «Dschinghis Khan: The History of Dschinghis Khan» были ремикшированы и продюсированы известным немецким продюсером Давидом Брандесом.

В 2005 году группа вновь собралась вместе (за исключением Мандоки и погибшего Потгитера) и 17 декабря дала большой концерт в спортивно-концертном комплексе «Олимпийский» в Москве в рамках фестиваля «Легенды Ретро FM». На концерте присутствовало около 30 тыс. зрителей, он транслировался Первым каналом через системы «Орбита» и «Орбита-2».

В 2006 году группа предприняла турне, посвящённое памяти Стива Бендера — он умер от рака. В рамках турне музыканты выступали с концертами в Улан-Баторе и Киеве.

В 2007 году группой был выпущен альбом 7 Leben (русск. "7 жизней"). В него вошли как новые композиции, так и обработки первых хитов (Dschinghis khan, Moskau, Rocking son of Dschinghis Khan).

В 2009 году группа присутствовала на открытии «Евровидения».
1.Dschinghis Khan
2.Moscau
3.Hadschi halef omar
4.Rom
5.Loreley
6.Wir sit zen alle im selben boot
7.Pistolero
8.Klaba Utterman
9.Der Dudelmoser
10.Himalaya
11.Mexico
Качество: DVDRip
Формат: AVI
Видео кодек: DivX 5
Аудио кодек: MP3
Видео: DivX 5, 720x576, 25.00fps, 2 501 Kbps
Аудио: MPEG Audio Layer 3, 44100Hz stereo, 256kbps
Релиз от: Ser





General
Complete name : E:Dschinghis Khan.avi
Format : AVI
Format/Info : Audio Video Interleave
File size : 667 MiB
Duration : 33mn 40s
Overall bit rate : 2 769 Kbps
Writing application : Lavf51.12.1

Video
ID : 0
Format : MPEG-4 Visual
Format profile : Simple@L1
Format settings, BVOP : No
Format settings, QPel : No
Format settings, GMC : No warppoints
Format settings, Matrix : Default (H.263)
Codec ID : DX50
Codec ID/Hint : DivX 5
Duration : 33mn 40s
Bit rate : 2 501 Kbps
Width : 720 pixels
Height : 576 pixels
Display aspect ratio : 5:4
Frame rate : 25.000 fps
Standard : PAL
Color space : YUV
Chroma subsampling : 4:2:0
Bit depth : 8 bits
Scan type : Progressive
Compression mode : Lossy
Bits/(Pixel*Frame) : 0.241
Stream size : 602 MiB (90%)
Writing library : Lavc51.40.4

Audio
ID : 1
Format : MPEG Audio
Format version : Version 1
Format profile : Layer 3
Mode : Joint stereo
Mode extension : MS Stereo
Codec ID : 55
Codec ID/Hint : MP3
Duration : 33mn 40s
Bit rate mode : Constant
Bit rate : 256 Kbps
Channel(s) : 2 channels
Sampling rate : 44.1 KHz
Compression mode : Lossy
Stream size : 61.7 MiB (9%)
Alignment : Aligned on interleaves
Interleave, duration : 26 ms (0.65 video frame)
Interleave, preload duration : 26 ms

pb.wtf



Скачать Видеография Dschinghis Khan через торрент https://pic1.kartinco.top/images/61/c9iu2.jpg Скачать, смотреть онлайн Видеография Dschinghis Khan бесплантно в хорошем качестве Описание: Группа была создана буквально за 6 недель до национального немецкого отбора на Евровидение (конец января-начало февраля 1979 ... 10 10 11
Info! Золотая раздача, скачанное не засчитывается.
Торрент: Зарегистрирован [2013-12-14 07:03] · скачан: 104 раз
Статус: √ проверено
Размер: 667 MB
Как cкачать? Как скачать Видеография Dschinghis Khan через торрент | UTorrent

28-11-2019 20:33  

Отключить всю рекламу на сайте

    Дорогой пользователь! Огромная просьба, поблагодарите релизера, оцените раздачу и оставьте свои комментарий, если Вы скачали Видеография Dschinghis Khan через торрент бесплатно!
    Комментировать посты могут только пользователи прошедшие не сложную регистрацию
    Показать сообщения:    

    Видеография Dschinghis Khan через торрент
    Скачать бесплатно Видеография Dschinghis Khan
    Видеография Dschinghis Khan скачать торрент
    Видеография Dschinghis Khan смотреть онлайн
    Cкачать фильм Видеография Dschinghis Khan бесплатно
    Видеография Dschinghis Khan скачать торрент в хорошем качестве
    Видеография Dschinghis Khan смотреть онлайн бесплатно в хорошем качестве


    Вы не можете начинать темы
    Вы не можете отвечать на сообщения
    Вы не можете редактировать свои сообщения
    Вы не можете удалять свои сообщения
    Вы не можете голосовать в опросах
    Вы не можете прикреплять файлы к сообщениям
    Вы можете скачивать файлы