Ссылка на приватное зеркало нашего сайта всего за 1$. Внимание количество ограничено!!!

2 сезон

iTunes

1 сезон

1

iTunes

iTunes

iTunes

1 сезон

RePack

30

ИГРА 18+

pack

ВАЖНО

!!Акция!!

Alien_RageХит недели

RePack

MK11
pack

Забери бонус

RePack

jed

!!Акция!!

Alien_Rage

RePack

fifa19

RePack

Assassins Creed: Odyssey

RePack

NEED FOR SPEED™ PAYBACK

4 сезон

9 сезон

Бесстыжие 9 сезон

Все сериалы

все сериалы на PB.wtf

RePack

FAR CRY 5
  

Путешествие муравья (Эдуард Назаров) [1983 г., Советские мультфильмы, DVDRip] pb.wtf

Путешествие муравья через торрент pb.wtf

Раздают: 1 [ 0 KB/s ]
Размер: 194 MB | Добавлен: 6 лет 10 мес. назад | Торрент скачан:224 раза
Скачать  

14-12-2013 11:35 Путешествие муравья Скачать торрент  

Путешествие муравья
Год выпуска: 1983
Выпущено: Союзмультфильм
Жанр: Советские мультфильмы
Продолжительность: 00:09:42
Перевод: Не требуется

Режиссер: Эдуард Назаров

Описание: По мотивам сказки В.Бианки. VI МФ анимационных фильмов в Загребе - Первая премия в категории детских фильмов

Качество: DVDRip
Формат: AVI
Видео кодек: XviD
Аудио кодек: AC3
Видео: 688x516 (1.33:1), 25 fps, XviD MPEG-4 ~2770 kbps avg, 0.31 bit/pixel
Аудио: 48 kHz, AC3 Dolby Digital, 2/0 (L,R) ch, ~192.00 kbps avg
General
Complete name : F:NEW VIDEOПутешествие муравья.avi
Format : AVI
Format/Info : Audio Video Interleave
File size : 194 MiB
Duration : 9mn 8s
Overall bit rate : 2 972 Kbps
Writing application : VirtualDubMod 1.5.10.2 (build 2542/release)
Writing library : VirtualDubMod build 2542/release

Video
ID : 0
Format : MPEG-4 Visual
Format profile : Advanced Simple@L5
Format settings, BVOP : 2
Format settings, QPel : No
Format settings, GMC : No warppoints
Format settings, Matrix : Default (H.263)
Muxing mode : Packed bitstream
Codec ID : XVID
Codec ID/Hint : XviD
Duration : 9mn 8s
Bit rate : 2 771 Kbps
Width : 688 pixels
Height : 516 pixels
Display aspect ratio : 4:3
Frame rate : 25.000 fps
Color space : YUV
Chroma subsampling : 4:2:0
Bit depth : 8 bits
Scan type : Progressive
Compression mode : Lossy
Bits/(Pixel*Frame) : 0.312
Stream size : 181 MiB (93%)
Writing library : XviD 1.1.2 (UTC 2006-11-01)

Audio
ID : 1
Format : AC-3
Format/Info : Audio Coding 3
Mode extension : CM (complete main)
Codec ID : 2000
Duration : 9mn 8s
Bit rate mode : Constant
Bit rate : 192 Kbps
Channel(s) : 2 channels
Channel positions : Front: L R
Sampling rate : 48.0 KHz
Bit depth : 16 bits
Compression mode : Lossy
Stream size : 12.5 MiB (6%)
Alignment : Aligned on interleaves
Interleave, duration : 40 ms (1.00 video frame)
Interleave, preload duration : 512 ms
pb.wtf



Скачать Путешествие муравья через торрент http://i59.fastpic.ru/big/2013/1214/df/5d619f7551a0cb6fd8adb3b6223da0df.jpg Скачать фильм Путешествие муравья через торрент бесплантно в хорошем качестве Описание: По мотивам сказки В.Бианки. VI МФ анимационных фильмов в Загребе - Первая премия в категории детских ... 9.9 10 16
Info! Золотая раздача, скачанное не засчитывается.
Торрент: Зарегистрирован [2013-12-14 11:35] · скачан: 224 раз
Статус: √ проверено
Размер: 194 MB
Как cкачать? Как скачать Путешествие муравья через торрент | qTorrent

% Раздел Тема Автор DL S | L
Наши мультфильмы [ 283 MB ] Путешествие муравья [1983 мультфильм DVDRip] манук1977 Скачать
1 | 0

28-11-2019 20:33  

Отключить всю рекламу на сайте

    Дорогой пользователь! Огромная просьба, поблагодарите релизера, оцените раздачу и оставьте свои комментарий, если Вы скачали Путешествие муравья через торрент бесплатно! Внесите свою лепту в развитие PiratBit!
    Комментировать посты могут только пользователи прошедшие не сложную регистрацию
    Показать сообщения:    

    Путешествие муравья через торрент
    Скачать бесплатно Путешествие муравья
    Путешествие муравья скачать торрент
    Путешествие муравья смотреть онлайн
    Cкачать фильм Путешествие муравья бесплатно
    Путешествие муравья скачать торрент в хорошем качестве
    Путешествие муравья смотреть онлайн бесплатно в хорошем качестве


    Вы не можете начинать темы
    Вы не можете отвечать на сообщения
    Вы не можете редактировать свои сообщения
    Вы не можете удалять свои сообщения
    Вы не можете голосовать в опросах
    Вы не можете прикреплять файлы к сообщениям
    Вы можете скачивать файлы