новый адрес
Ссылка на приватное зеркало всего за 1$. Внимание количество ограничено!!!

iTunes

1+1

iTunes

мы

iTunes

1

iTunes

Чернобыль

iTunes

Ральф против интернета

Лицензия

ПШазам

Лицензия

Оно 2

Лицензия

30
pack

Вам бонус

ВАЖНО

!!Акция!!

Alien_RageХит недели

RePack

Resident Evil 21

ИГРА 18+

pack

RePack

jed

!!Акция!!

Alien_Rage

RePack

fifa19

RePack

Assassins Creed: Odyssey

RePack

NEED FOR SPEED™ PAYBACK

3 сезон

9 сезон

Бесстыжие 9 сезон

Все сериалы

все сериалы на PB.wtf

RePack

FAR CRY 5
Ребята, катастрофически не хватает 1900р. для оплаты серверов за Октябрь (всвязи с блокировками трафик упал в 3 раза), 1-2р., выручайте.
  

Женя, Женечка и «Катюша» (Владимир Мотыль) [1967 г., мелодрама, комедия, военный, DVDRip] pb.wtf

Женя, Женечка и «Катюша» через торрент pb.wtf

Размер: 1.36 GB | Добавлен: 5 лет 11 мес. назад | Торрент скачан:62 раза
Скачать  

14-12-2013 14:41 Женя, Женечка и «Катюша» Скачать торрент  

Женя, Женечка и «Катюша»
Год выпуска: 1967
Страна: СССР
Жанр: мелодрама, комедия, военный
Продолжительность: 01:20:05
Перевод: Не требуется

Режиссер: Владимир Мотыль
Сценарий: Олег Даль, Галина Фигловская, Михаил Кокшенов, Павел Морозенко, Георгий Штиль, Марк Бернес, Адольф Ильин, Любовь Малиновская, Владимир Федоровб Нелли Гуцол-Ильина

Премьера в мире: 21 августа 1967



В ролях: Олег Даль, Галина Фигловская, Михаил Кокшенов, Павел Морозенко, Георгий Штиль, Марк Бернес, Адольф Ильин, Любовь Малиновская, Владимир Федоровб Нелли Гуцол-Ильина,

Описание: Солдат Женя Колышкин — хрупкий интеллигент с Арбата — сплошное недоразумение в военных буднях. Отправившись в предновогоднюю ночь за посылкой, он натыкается на немецкий блиндаж. Ему удается спастить, но гауптвахта неизбежна.
Незавидную участь Жени скрашивает Женечка — связистка полка катюш. Пройдет время и они встретятся в громадном пустом доме в освобожденном городе, где сыграют в прятки… Одна из самых нежных картин о войне.

Доп. информация: Полная реставрация "Крупный план"

Съёмки фильма частично проходили в Калининграде. Опрокидывание канистры с бензином происходит на фоне Кафедрального собора — единственного в России готического собора XIV века.


На роль Жени Колышкина первоначально пробовался Борислав Брондуков.

История, когда советский солдат, заблудившись с посылкой, попал к немцам под Новый год, была заимствована из фронтовых газет. В отличие от Жени Колышкина, солдат скрыл, что был в расположении врага, и это открылось только к концу войны.

Качество: DVDRip
Формат: AVI
Видео кодек: XviD
Аудио кодек: AC3
Видео: 720x544 (1.32:1), 25 fps, XviD build 50 ~1977 kbps avg, 0.20 bit/pixel
Аудио#1: 48 kHz, AC3 Dolby Digital, 3/2 (L,C,R,l,r) + LFE ch, ~448.00 kbps avg

Общее
Полное имя : F:ЗакачкиZhenya.Zhenechka.I.Katyusha.1967.DVDRip.avi
Формат : AVI
Формат/Информация : Audio Video Interleave
Размер файла : 1,36 Гбайт
Продолжительность : 1 ч. 20 м.
Общий поток : 2436 Кбит/сек
Программа кодирования : VirtualDubMod 1.5.10.3 | www.virtualdub-fr.org || (build 2550/release)
Библиотека кодирования : VirtualDubMod build 2550/release

Видео
Идентификатор : 0
Формат : MPEG-4 Visual
Профиль формата : Advanced Simple@L5
Параметр BVOP формата : 2
Параметр QPel формата : Нет
Параметр GMC формата : Без точки перехода
Параметр матрицы формата : Default (H.263)
Идентификатор кодека : XVID
Идентификатор кодека/Подсказка : XviD
Продолжительность : 1 ч. 20 м.
Битрейт : 1978 Кбит/сек
Ширина : 720 пикселей
Высота : 544 пикселя
Соотношение сторон : 4:3
Частота кадров : 25,000 кадров/сек
Цветовое пространство : YUV
Субдискретизация насыщенности : 4:2:0
Битовая глубина : 8 бит
Тип развёртки : Прогрессивная
Метод сжатия : С потерями
Бит/(Пиксели*Кадры) : 0.202
Размер потока : 1,11 Гбайт (81%)
Библиотека кодирования : XviD 1.2.1 (UTC 2008-12-04)

Аудио
Идентификатор : 1
Формат : AC-3
Формат/Информация : Audio Coding 3
Расширение режима : CM (complete main)
Параметр Endianness формата : Big
Идентификатор кодека : 2000
Продолжительность : 1 ч. 20 м.
Вид битрейта : Постоянный
Битрейт : 448 Кбит/сек
Каналы : 6 каналов
Расположение каналов : Front: L C R, Side: L R, LFE
Частота : 48,0 КГц
Битовая глубина : 16 бит
Метод сжатия : С потерями
Размер потока : 257 Мбайт (18%)
Выравнивание : Разделение по промежуткам
Продолжительность промежутка : 40 мс. (1,00 видеокадр)
Время предзагрузки промежутка : 500 мс.


Женя, Женечка и «Катюша» скачать торрент


pb.wtf



Скачать Женя, Женечка и «Катюша» через торрент http://s7.uploads.ru/KDxIw.jpg Скачать фильм Женя, Женечка и «Катюша» через торрент бесплантно в хорошем качестве Описание: Солдат Женя Колышкин — хрупкий интеллигент с Арбата — сплошное недоразумение в военных буднях. Отправившись в предновогоднюю ночь ... 10 10 6
Info! Золотая раздача, скачанное не засчитывается.
Торрент: Зарегистрирован [2013-12-14 14:41] · скачан: 62 раз
Статус: √ проверено
Размер: 1.36 GB
Как cкачать? Как скачать Женя, Женечка и «Катюша» через торрент | qTorrent

% Раздел Тема Автор DL S | L
Кино СССР [ 1.45 GB ] Женя Женечка и "Катюша" [1967 СССР военный DVDRip] Notturno Скачать
1 | 0


>> Регистрируемся здесь <<






Отзывы и комментарии о схеме читаем и пишем здесь: ---> Отзывы и комментарии о схеме

Новые благодарочки в телеграм довольных пользователей:
скриншот   скриншот   скриншот   скриншот   скриншот
    Дорогой пользователь! Огромная просьба, поблагодарите релизера, оцените раздачу и оставьте свои комментарий, если Вы скачали Женя, Женечка и «Катюша» через торрент бесплатно! Внесите свою лепту в развитие PiratBit!
    Комментировать посты могут только пользователи прошедшие не сложную регистрацию
    Показать сообщения:    

    Женя, Женечка и «Катюша» через торрент
    Скачать бесплатно Женя, Женечка и «Катюша»
    Женя, Женечка и «Катюша» скачать торрент
    Женя, Женечка и «Катюша» смотреть онлайн
    Cкачать фильм Женя, Женечка и «Катюша» бесплатно
    Женя, Женечка и «Катюша» скачать торрент в хорошем качестве
    Женя, Женечка и «Катюша» смотреть онлайн бесплатно в хорошем качестве


    Вы не можете начинать темы
    Вы не можете отвечать на сообщения
    Вы не можете редактировать свои сообщения
    Вы не можете удалять свои сообщения
    Вы не можете голосовать в опросах
    Вы не можете прикреплять файлы к сообщениям
    Вы можете скачивать файлы