2 сезон

iTunes

MVO

1

2 сезон

iTunes

iTunes

1 сезон

RePack

30

Ultimate

ВАЖНО

ИГРА 18+

pack

RePack

MK11
pack

Легкие деньги

RePack

jed

RePack

fifa19

RePack

RDR2

RePack

NEED FOR SPEED™ PAYBACK

4 сезон

9 сезон

Бесстыжие 9 сезон

Все сериалы

все сериалы на PB.wtf

RePack

FAR CRY 5

Anonymous, добрый вечер, мы не успеваем собрать деньги на оплату серверов за декабрь и январь, помогите нам пожалуйста в это трудное время. В качестве благодарности мы отключим Вам всю рекламу на сайте (укажите свой ник в строку Ваше имя)!

×
  
Magnet ссылка

Хищник в 3D / Predator in 3D (Джон МакТирнан) [1987 г., фантастика, боевик, приключения, BDRip 1080p] Anaglyph, red'cyan pb.wtf

Хищник в 3D через торрент pb.wtf

Размер: 6.62 GB | Добавлен: 7 лет 1 мес. назад | Торрент скачан:132 раза
Скачать  

14-12-2013 16:51 Хищник в 3D Скачать торрент  

Хищник в 3D / Predator in 3D
Год выпуска: 1987
Страна: США
Жанр: фантастика, боевик, приключения,
Продолжительность: 01:46:34
Перевод: Многоголосый закадровый

Режиссер: Джон МакТирнан
Продюссер: Джон Дэвис, Лоуренс Гордон, Джоэл Силвер,
Сценарий: Джим Томас, Джон Томас

Бюджет: $15 000 000
Премьера в мире: 12 июня 1987



В ролях: Арнольд Шварценеггер, Карл Уэверз, Элпидия Каррильо, Билл Дьюк, Джесси Вентура, Сонни Лендхэм, Ричард Чавес, Р.Г. Армстронг, Шэйн Блэк, Кевин Питер Холл, Steve Boyum, Уильям Х. Бертон, Генри Кинги, Свен-Оле Торсен,

Описание: Американский вертолет был сбит партизанами в Южной Америке. Оставшийся в живых экипаж находится в плену. Центральное разведывательное управление США бросает свои лучшие силы для освобождения американских граждан.

Элитная группа спецназа во главе с Датчем была заброшена в южноамериканские джунгли.


Доп. информация: Формат 3d: Anaglyph, red'cyan



Качество: BDRip 1080p
Формат: MKV
Видео кодек: H.264
Аудио кодек: AC3
Видео: x264 , 5770 Кбит/сек, 1920 x 1080 (16:9) 23,976 fps, (0.116 bit/pixel)
Аудио#1: Русский / AC3 / 48 KHz / 5.1 ch / 640 Kbps (Многоголосый закадровый - Киномания)
Аудио#2: Русский / AC3 / 48 KHz / 5.1 ch / 640 Kbps (AVO.Goblin.Puchkov)
Аудио#3: Русский / AC3 / 48 KHz / 5.1 ch / 640 Kbps (AVO.Gavrilov(new))
Аудио#4: Украинский / AC3 / 48 KHz / 5.1 ch / 384 Kbps (Многоголосый закадровый - ICTV)
Аудио#4: Английский / AC3 / 48 KHz / 5.1 ch / 640 Kbps (Original - BD 3D CEE)



скриншот   скриншот   скриншот   скриншот   скриншот   скриншот  
Общее
Уникальный идентификатор : 179251102431617888773952861789652413037 (0x86DA81AED12F319BB3D2C72B993A6A6D)
Полное имя : D: Predator.(1987).BDRip.1080p.3D.mkv
Формат : Matroska
Версия формата : Version 4 / Version 2
Размер файла : 6,62 Гбайт
Продолжительность : 1 ч. 46 м.
Общий поток : 8891 Кбит/сек
Название фильма : Хищник / Predator (1987) BDRip 1080p | 3D-Video | Anaglyph red'cyan
Дата кодирования : UTC 2013-12-13 10:43:29
Программа кодирования : mkvmerge v6.2.0 ('Promised Land') built on Apr 28 2013 12:22:01
Библиотека кодирования : libebml v1.3.0 + libmatroska v1.4.0

Видео
Идентификатор : 1
Формат : AVC
Формат/Информация : Advanced Video Codec
Профиль формата : High@L4.0
Параметр CABAC формата : Да
Параметр ReFrames формата : 4 кадра
Идентификатор кодека : V_MPEG4/ISO/AVC
Продолжительность : 1 ч. 46 м.
Битрейт : 5770 Кбит/сек
Ширина : 1920 пикселей
Высота : 1080 пикселей
Соотношение сторон : 16:9
Режим частоты кадров : Постоянный
Частота кадров : 23,976 кадра/сек
Цветовое пространство : YUV
Субдискретизация насыщенности : 4:2:0
Битовая глубина : 8 бит
Тип развёртки : Прогрессивная
Бит/(Пиксели*Кадры) : 0.116
Размер потока : 4,30 Гбайт (65%)
Заголовок : Predator (1987) BDRip 1080p 3D.mkv
Библиотека кодирования : x264 core 130 r2274bm c832fe9
Настройки программы : cabac=1 / ref=2 / deblock=1:-1:-1 / analyse=0x3:0x113 / me=hex / subme=6 / psy=1 / psy_rd=1.00:0.15 / mixed_ref=1 / me_range=16 / chroma_me=1 / trellis=1 / 8x8dct=1 / cqm=0 / deadzone=21,11 / fast_pskip=1 / chroma_qp_offset=-3 / threads=3 / lookahead_threads=1 / sliced_threads=0 / nr=0 / decimate=1 / interlaced=0 / bluray_compat=0 / constrained_intra=0 / bframes=3 / b_pyramid=2 / b_adapt=1 / b_bias=0 / direct=1 / weightb=1 / open_gop=0 / weightp=1 / keyint=250 / keyint_min=23 / scenecut=40 / intra_refresh=0 / rc_lookahead=30 / rc=crf / mbtree=1 / crf=21.0 / qcomp=0.60 / qpmin=0 / qpmax=69 / qpstep=4 / ip_ratio=1.40 / aq=1:1.00
Язык : English
Default : Да
Forced : Нет

Аудио #1
Идентификатор : 2
Формат : AC-3
Формат/Информация : Audio Coding 3
Расширение режима : CM (complete main)
Параметр Endianness формата : Big
Идентификатор кодека : A_AC3
Продолжительность : 1 ч. 46 м.
Вид битрейта : Постоянный
Битрейт : 640 Кбит/сек
Каналы : 6 каналов
Расположение каналов : Front: L C R, Side: L R, LFE
Частота : 48,0 КГц
Битовая глубина : 16 бит
Метод сжатия : С потерями
Задержка видео : -1 мс.
Размер потока : 488 Мбайт (7%)
Заголовок : Многоголосый закадровый - Киномания
Язык : Russian
Default : Да
Forced : Нет

Аудио #2
Идентификатор : 3
Формат : AC-3
Формат/Информация : Audio Coding 3
Расширение режима : CM (complete main)
Параметр Endianness формата : Big
Идентификатор кодека : A_AC3
Продолжительность : 1 ч. 46 м.
Вид битрейта : Постоянный
Битрейт : 640 Кбит/сек
Каналы : 6 каналов
Расположение каналов : Front: L C R, Side: L R, LFE
Частота : 48,0 КГц
Битовая глубина : 16 бит
Метод сжатия : С потерями
Задержка видео : -1 мс.
Размер потока : 488 Мбайт (7%)
Заголовок : VO.Goblin.Puchkov.ac3
Язык : Russian
Default : Нет
Forced : Нет

Аудио #3
Идентификатор : 4
Формат : AC-3
Формат/Информация : Audio Coding 3
Расширение режима : CM (complete main)
Параметр Endianness формата : Big
Идентификатор кодека : A_AC3
Продолжительность : 1 ч. 46 м.
Вид битрейта : Постоянный
Битрейт : 640 Кбит/сек
Каналы : 6 каналов
Расположение каналов : Front: L C R, Side: L R, LFE
Частота : 48,0 КГц
Битовая глубина : 16 бит
Метод сжатия : С потерями
Задержка видео : -1 мс.
Размер потока : 488 Мбайт (7%)
Заголовок : AVO.Gavrilov(new).ac3
Default : Нет
Forced : Нет

Аудио #4
Идентификатор : 5
Формат : AC-3
Формат/Информация : Audio Coding 3
Расширение режима : CM (complete main)
Параметр Endianness формата : Big
Идентификатор кодека : A_AC3
Продолжительность : 1 ч. 46 м.
Вид битрейта : Постоянный
Битрейт : 384 Кбит/сек
Каналы : 6 каналов
Расположение каналов : Front: L C R, Side: L R, LFE
Частота : 48,0 КГц
Битовая глубина : 16 бит
Метод сжатия : С потерями
Задержка видео : -1 мс.
Размер потока : 293 Мбайт (4%)
Заголовок : Многоголосый закадровый - ICTV
Язык : Ukrainian
Default : Нет
Forced : Нет

Аудио #5
Идентификатор : 6
Формат : AC-3
Формат/Информация : Audio Coding 3
Расширение режима : CM (complete main)
Параметр Endianness формата : Big
Идентификатор кодека : A_AC3
Продолжительность : 1 ч. 46 м.
Вид битрейта : Постоянный
Битрейт : 640 Кбит/сек
Каналы : 6 каналов
Расположение каналов : Front: L C R, Side: L R, LFE
Частота : 48,0 КГц
Битовая глубина : 16 бит
Метод сжатия : С потерями
Задержка видео : -1 мс.
Размер потока : 488 Мбайт (7%)
Заголовок : Original - BD 3D CEE
Язык : English
Default : Нет
Forced : Нет
pb.wtf



Скачать Хищник в 3D через торрент http://i57.fastpic.ru/big/2013/1214/ae/dd1e4d38cbb208e4fdd41dca842032ae.png Скачать фильм Хищник в 3D через торрент бесплантно в хорошем качестве Описание: Американский вертолет был сбит партизанами в Южной Америке. Оставшийся в живых экипаж находится в плену. Центральное ... 10 10 11
Info! Золотая раздача, скачанное не засчитывается.
Торрент: Зарегистрирован [2013-12-14 16:51] · скачан: 132 раз
Статус: √ проверено
Размер: 6.62 GB
Как cкачать? Как скачать Хищник в 3D через торрент | UTorrent

28-11-2019 20:33  

Отключить всю рекламу на сайте


04-03-2014 22:01 Хищник в 3D Скачать торрент  

Что-то хрень какая-то выходит... У парня на большом самсунге пытались смотреть: титры двоятся, на заднем плане тоже псевдо 3Д... чувак "игрался" с настройками в ТВ, результат -болт(((((pb.wtf



05-03-2014 11:03 Хищник в 3D Скачать торрент  

drovosek44 писал(а):

Что-то хрень какая-то выходит... У парня на большом самсунге пытались смотреть: титры двоятся, на заднем плане тоже псевдо 3Д... чувак "игрался" с настройками в ТВ, результат -болт(((((

Чем пытались смотреть? Не Забыли что это Анаглиф?pb.wtf



    Дорогой пользователь! Огромная просьба, поблагодарите релизера, оцените раздачу и оставьте свои комментарий, если Вы скачали Хищник в 3D через торрент бесплатно! Внесите свою лепту в развитие PiratBit!
    Комментировать посты могут только пользователи прошедшие не сложную регистрацию
    Показать сообщения:    

    Хищник в 3D через торрент
    Скачать бесплатно Хищник в 3D
    Хищник в 3D скачать торрент
    Хищник в 3D смотреть онлайн
    Cкачать фильм Хищник в 3D бесплатно
    Хищник в 3D скачать торрент в хорошем качестве
    Хищник в 3D смотреть онлайн бесплатно в хорошем качестве


    Вы не можете начинать темы
    Вы не можете отвечать на сообщения
    Вы не можете редактировать свои сообщения
    Вы не можете удалять свои сообщения
    Вы не можете голосовать в опросах
    Вы не можете прикреплять файлы к сообщениям
    Вы можете скачивать файлы