новый адрес пиратбит piratbit
Мега распродажа FORZA HORIZON 4 ULTIMATE+ВСЕ DLC+ОНЛАЙН всего за 499р. 349 руб. (супер цена). Внимание количество ограничено!!!

iTunes

1+1

iTunes

мы

iTunes

1

iTunes

Чернобыль

iTunes

Ральф против интернета

Лицензия

ПШазам

Лицензия

Игра престолов

Лицензия

30
pack

ВАЖНО

!!Акция!!

Alien_RageХит недели

RePack

Resident Evil 21

ИГРА 18+

pack

RePack

Metro:Exodus

!!Акция!!

Alien_Rage

RePack

fifa19

RePack

Assassins Creed: Odyssey

RePack

NEED FOR SPEED™ PAYBACK

3 сезон

9 сезон

Бесстыжие 9 сезон

Все сериалы

все сериалы на PB.wtf

RePack

FAR CRY 5
Ребята, катастрофически не хватает 1900р. для оплаты серверов за Октябрь (всвязи с блокировками трафик упал в 3 раза), 1-2р., выручайте.
  

Город Зеро (Карен Шахназаров) [1989 г., фантастика, драма, комедия, детектив, BDRip] pb.wtf

Город Зеро через торрент pb.wtf

Размер: 2 GB | Добавлен: 5 лет 10 мес. назад | Торрент скачан:85 раз
Скачать  

15-12-2013 10:51 Город Зеро Скачать торрент  

Город Зеро (1989) BDRip
Год выпуска: 1989
Страна: СССР
Жанр: фантастика, драма, комедия, детектив
Продолжительность: 01:41:44
Субтитры: нет
Режиссер: Карен Шахназаров
Сценарий: Александр Бородянский, Карен Шахназаров
Премьера в мире: 16 марта 1990



Возраст : 18+ ,зрителям, достигшим 18 лет

В ролях: Леонид Филатов, Олег Басилашвили, Владимир Меньшов, Армен Джигарханян, Евгений Евстигнеев, Алексей Жарков, Петр Щербаков, Юрий Шерстнев, Елена Аржаник, Татьяна Хвостикова

Описание: Отправившись в командировку, герой фильма неожиданно попадет в фантастический город. Он очень похож на наш мир, только скрытая абсурдность повседневной жизни здесь стала явной. Город Зеро открывает герою одну тайну за другой, и вернуться в привычную реальность становится все трудней…

Качество: BDRip
Формат: AVI
Видео кодек: XviD
Аудио кодек: AAC
Видео: 704x512 (1.38:1), XviD build 65 ~2353 kbps avg,23.976 fps, 0.27 bit/pixel
Аудио: AC3 Dolby Digital,~448 kbps avg, 3/2 (L,C,R,l,r) + LFE ch,,48 kHz
(источник: HDCLUB / Blu-Ray / 1080р)
Релиз от : [img]http://hqclub.net/images/hqclub.png [/img]
Скачать Сэмпл
[скриншот   скриншот   скриншот   скриншот   скриншот   скриншот   скриншот   скриншот   скриншот   скриншот  

Полное имя : H:tempГород ЗероGorod.Zero.1989.RUS.BDRip.XviD.AC3.-HQCLUB.avi
Формат : AVI
Формат/Информация : Audio Video Interleave
Профиль формата : OpenDML
Размер файла : 2,00 Гбайт
Продолжительность : 1 ч. 41 м.
Общий поток : 2809 Кбит/сек
Название фильма : Город Зеро (1989) BDRip
Режиссёр : yaroslaigor
Жанр : драма
Программа кодирования : VirtualDubMod 1.5.10.2 (build 2542/release)
Правообладатель : http://hqclub.net/
Примечание : 14.12.2013

Видео
Идентификатор : 0
Формат : MPEG-4 Visual
Профиль формата : Advanced Simple@L5
Параметр BVOP формата : 1
Параметр QPel формата : Нет
Параметр GMC формата : Без точки перехода
Параметр матрицы формата : Выборочная
Идентификатор кодека : XVID
Идентификатор кодека/Подсказка : XviD
Продолжительность : 1 ч. 41 м.
Битрейт : 2348 Кбит/сек
Ширина : 704 пикселя
Высота : 512 пикселей
Соотношение сторон : 1,375
Частота кадров : 23,976 кадра/сек
Цветовое пространство : YUV
Субдискретизация насыщенности : 4:2:0
Битовая глубина : 8 бит
Тип развёртки : Прогрессивная
Метод сжатия : С потерями
Бит/(Пиксели*Кадры) : 0.272
Размер потока : 1,67 Гбайт (84%)
Библиотека кодирования : XviD 65

Аудио
Идентификатор : 1
Формат : AC-3
Формат/Информация : Audio Coding 3
Расширение режима : CM (complete main)
Параметр Endianness формата : Big
Идентификатор кодека : 2000
Продолжительность : 1 ч. 41 м.
Вид битрейта : Постоянный
Битрейт : 448 Кбит/сек
Каналы : 6 каналов
Расположение каналов : Front: L C R, Side: L R, LFE
Частота : 48,0 КГц
Битовая глубина : 16 бит
Метод сжатия : С потерями
Размер потока : 326 Мбайт (16%)
Выравнивание : Разделение по промежуткам
Продолжительность промежутка : 42 мс. (1,00 видеокадр)
Время предзагрузки промежутка : 500 мс.

В качестве восковых фигур в фильме были использованы музыканты из групп «Коррозия Металла» и «ДИВ».
Премьерный показ в разных странах:
Финляндия — 16 марта 1990 г.
Австралия — 26 июня 1990 г.
США — 22 марта 1991 г. (только в Нью-Йорке)
Когда в начале фильма поезд отходит от платформы, на табличке с указанием маршрута следования видна надпись "Москва - Ленинград".
Следовательно, город находится где-то между Москвой и Ленинградом.
Среди уроженцев города упоминается реальный персонаж - академик, архитектор Иван Фомин, "который обсуждает в 1934 году с товарищами Хрущёвым и Кагановичем проект возведения на Красной площади величественного здания Наркомтяжпрома". Иван Александрович Фомин действительно проектировал здание Народного комиссариата тяжёлой промышленности СССР (правда в фильме показывается проект здания НКТП, авторами которого были архитекторы братья Веснины и Лященко, и который также предполагалось возвести на Красной площади на месте ГУМа). Академик Фомин родился в Орле.
Вопреки утверждению Варакина о том, что «римляне никогда не были на территории СССР», это – не так. Известно, что римляне доходили до Северного Причерноморья, в частности, Крыма, а также были на территории Армении. В 30-е годы ХХ века в Азербайджане у подножья горы Беюк-даш (Гобустанский археологический заповедник к югу от Баку) была найдена каменная плита с латинской надписью, датируемой I веком нашей Эры. (между 84 и 96 годами). Надпись гласит:Imp Domitiano Caesare avg Germanic L Julius Maximus Leg XII Ful. Перевод: «Время императора Домициана Цезаря Августа Германского, Луций Юлий Максим, Центурион XII Легиона Молниеносного». Возможно, в гобустанской надписи упоминается отряд XII легиона, который был истреблён местными жителями Апшерона. Император Домициан послал легион на помощь союзным царствам Иберии и Албании на Кавказ – считается, что это был самый далеко зашедший на восток от Рима легион.
pb.wtf



Скачать Город Зеро через торрент http://pic.kartinco.top/images/6/qmalm.jpg Скачать фильм Город Зеро через торрент бесплантно в хорошем качестве Описание: Отправившись в командировку, герой фильма неожиданно попадет в фантастический город. Он очень похож на наш мир, только скрытая ... 10 10 4
Info! Золотая раздача, скачанное не засчитывается.
Торрент: Зарегистрирован [2013-12-15 10:51] · скачан: 85 раз
Статус: √ проверено
Размер: 2 GB
Как cкачать? Как скачать Город Зеро через торрент | qTorrent

% Раздел Тема Автор DL S | L
Наши фильмы (HD, WEB-DL 720p, 1080p) [ 4.58 GB ] Город Зеро [1988 BDRip 720p от KORSAR] Parallelo Скачать
5 | 0
Кино СССР [ 4.37 GB ] Город Зеро [1988 СССР DVD5 от AVP Studio] AVP Studio Скачать
1 | 0


>> Регистрируемся здесь <<






Отзывы и комментарии о схеме читаем и пишем здесь: ---> Отзывы и комментарии о схеме

Новые благодарочки в телеграм довольных пользователей:
скриншот   скриншот   скриншот   скриншот   скриншот
    Дорогой пользователь! Огромная просьба, поблагодарите релизера, оцените раздачу и оставьте свои комментарий, если Вы скачали Город Зеро через торрент бесплатно! Внесите свою лепту в развитие PiratBit!
    Комментировать посты могут только пользователи прошедшие не сложную регистрацию
    Показать сообщения:    

    Город Зеро через торрент
    Скачать бесплатно Город Зеро
    Город Зеро скачать торрент
    Город Зеро смотреть онлайн
    Cкачать фильм Город Зеро бесплатно
    Город Зеро скачать торрент в хорошем качестве
    Город Зеро смотреть онлайн бесплатно в хорошем качестве


    Вы не можете начинать темы
    Вы не можете отвечать на сообщения
    Вы не можете редактировать свои сообщения
    Вы не можете удалять свои сообщения
    Вы не можете голосовать в опросах
    Вы не можете прикреплять файлы к сообщениям
    Вы можете скачивать файлы