Присоединяйтесь к нам в Telegram!, здесь всегда актуальный адрес сайта, оперативная поддержка и многое другое!!

>

5.9

iTunes

7.4

iTunes

9.4

1 сезон

1

7.4

2 сезон

7.2

iTunes

7.3

1 сезон

13

6.1

iTunes

8.3

GOG

30

ULTIMATE

pack

9.9

Лицензия

ВАЖНО

ИГРА 18+

pack

7.3

RePack

MK11

7.7

RePack

jed

7.8

RePack

fifa19

8.5

RePack

RDR2

RePack

NEED FOR SPEED™ PAYBACK

5 сезон

9 сезон

Бесстыжие 9 сезон

Все сериалы

все сериалы на PB.wtf

RePack

FAR CRY 5

Anonymous, доброе утро, мы катастрофически не успеваем собрать деньги на оплату серверов, помогите нам пожалуйста 5,10,15р., для нас важна любая помощь . В качестве благодарности мы отключим Вам всю рекламу на сайте (укажите свой ник в строку Ваше имя)!

×
  
Magnet ссылка

Клипы от Стинга (1984-1994) / Sting - Fields Of Gold (The Best Of Sting 1984-1994) [2001 г., Pop, Rock, DVDRip] pb.wtf

Клипы от Стинга через торрент pb.wtf

Размер: 1.33 GB | Добавлен: 7 лет 11 мес. назад | Торрент скачан:132 раза
Смотреть онлайн Клипы от Стинга | Скачать    Ребята, помогите собрать деньги на оплату серверов!!!

15-12-2013 14:57 Клипы от Стинга Скачать торрент  

Клипы от Стинга (1984-1994)
Год выпуска: 2001
Страна: United Kingdom
Жанр: Pop, Rock
Продолжительность: 1:22:28
Перевод: Оригинал

В ролях: Sting & Co.

Описание: Sting («Стинг»; настоящее имя - Гордон Мэтью Томас Самнер род. 2 октября 1951)
- английский рок-музыкант и актёр, лидер группы The Police в 1976-84 гг.
С 1984 г. выступает сольно. Свой псевдоним Стинг получил за черно-желтый полосатый свитер,
в котором впервые появился на сцене. Глагол to sting означает «жалить», в переносном смысле «язвить».
01. When We Dance
02. If You Love Somebody Set Them Free
03. Fields Of Gold
04. AH This Time
05. Fortress Around Your Heart
06. Be Still My Beating Heart
07. Bring On The Night
08. The Dance Along (Cuecca Solo)
09. If I Ever Lose My Faith In You
10. Fragile
11. Why Should 1 Cry For You?
12. Englishman In New York
13. Russians
14. It's Probably Me
15. We'll Be Together
16. Demolition Man
17. This Cowboy Song
Качество: DVDRip
Формат: AVI
Видео кодек: XviD
Аудио кодек: MP3
Видео: Xvid 688x512, 25.00fps, 1 973 Kbps
Аудио: MPEG Audio Layer 3, 48000Hz stereo, 320kbps
Релиз от: maxim.zhirov





General
Complete name : E:Sting-Fields_Of_Gold(The Best Of Sting 1984-1994)_DVDRip.avi
Format : AVI
Format/Info : Audio Video Interleave
File size : 1.33 GiB
Duration : 1h 22mn
Overall bit rate : 2 303 Kbps
Writing application : FairUse Wizard - http://fairusewizard.com
Writing library : The best and REALLY easy backup tool

Video
ID : 0
Format : MPEG-4 Visual
Format profile : Advanced Simple@L5
Format settings, BVOP : 1
Format settings, QPel : No
Format settings, GMC : No warppoints
Format settings, Matrix : Default (MPEG)
Muxing mode : Packed bitstream
Codec ID : XVID
Codec ID/Hint : XviD
Duration : 1h 22mn
Bit rate : 1 973 Kbps
Width : 688 pixels
Height : 512 pixels
Display aspect ratio : 4:3
Frame rate : 25.000 fps
Color space : YUV
Chroma subsampling : 4:2:0
Bit depth : 8 bits
Scan type : Progressive
Compression mode : Lossy
Bits/(Pixel*Frame) : 0.224
Stream size : 1.14 GiB (86%)
Writing library : XviD 1.2.0.dev47 (UTC 2006-11-01)

Audio
ID : 1
Format : MPEG Audio
Format version : Version 1
Format profile : Layer 3
Mode : Joint stereo
Codec ID : 55
Codec ID/Hint : MP3
Duration : 1h 22mn
Bit rate mode : Constant
Bit rate : 320 Kbps
Channel(s) : 2 channels
Sampling rate : 48.0 KHz
Compression mode : Lossy
Stream size : 189 MiB (14%)
Alignment : Aligned on interleaves
Interleave, duration : 40 ms (1.00 video frame)
Interleave, preload duration : 504 ms
Writing library : LAMEЄЄFW‡h{·ЫVая7Р

pb.wtf



Скачать Клипы от Стинга через торрент https://pic1.kartinco.top/images/61/ijfze.jpg Скачать, смотреть онлайн Клипы от Стинга бесплантно в хорошем качестве Описание: Sting («Стинг»; настоящее имя - Гордон Мэтью Томас Самнер род. 2 октября 1951) - английский рок-музыкант и актёр, лидер группы ... 10 10 12
Info! Золотая раздача, скачанное не засчитывается.
Торрент: Зарегистрирован [2013-12-15 14:57] · скачан: 132 раз
Статус: √ проверено
Размер: 1.33 GB
Как cкачать? Как скачать Клипы от Стинга через торрент | UTorrent

28-11-2019 20:33  

Отключить всю рекламу на сайте

15-12-2013 15:51 Клипы от Стинга Скачать торрент  

Спасибо,в HD или Full было бы супер.pb.wtf



    Дорогой пользователь! Огромная просьба, поблагодарите релизера, оцените раздачу и оставьте свои комментарий, если Вы скачали Клипы от Стинга через торрент бесплатно!
    Комментировать посты могут только пользователи прошедшие не сложную регистрацию
    Показать сообщения:    

    Клипы от Стинга через торрент
    Скачать бесплатно Клипы от Стинга
    Клипы от Стинга скачать торрент
    Клипы от Стинга смотреть онлайн
    Cкачать фильм Клипы от Стинга бесплатно
    Клипы от Стинга скачать торрент в хорошем качестве
    Клипы от Стинга смотреть онлайн бесплатно в хорошем качестве


    Вы не можете начинать темы
    Вы не можете отвечать на сообщения
    Вы не можете редактировать свои сообщения
    Вы не можете удалять свои сообщения
    Вы не можете голосовать в опросах
    Вы не можете прикреплять файлы к сообщениям
    Вы можете скачивать файлы